PootzForce Evolution

Filmes Alta Definição / High Definition Movies - [DTS BluRay 1080p] Transformers: The Last Knight (2017) *HDC*

lost_rider34 - Dom Set 17, 2017 11:57 am
Assunto: [DTS BluRay 1080p] Transformers: The Last Knight (2017) *HDC
Image

Citação:
Optimus Prime descobre que seu planeta natal, Cybertron, agora é um planeta morto, e que ele foi o responsável por matá-lo. Ele encontra uma maneira de trazer o planeta de volta à vida, mas para isso precisa encontrar um artefato que está na Terra.

The Transformers leap into action once more in this sequel from Paramount Pictures and director Michael Bay. ~ Jason Buchanan, Rovi


[imdb]http://www.imdb.com/title/tt3371366/[/imdb]


Video
 ID                                       : 1
 Format                                   : AVC
 Format/Info                              : Advanced Video Codec
 Format profile                           : High@L4.1
 Format settings, CABAC                   : Yes
 Format settings, ReFrames                : 4 frames
 Codec ID                                 : V_MPEG4/ISO/AVC
 Duration                                 : 2 h 34 min
 Bit rate                                 : 15.0 Mb/s
 Width                                    : 1 920 pixels
 Height                                   : 1 008 pixels
 Display aspect ratio                     : 1.905
 Frame rate mode                          : Constant
 Frame rate                               : 23.976 (24000/1001) FPS
 Color space                              : YUV
 Chroma subsampling                       : 4:2:0
 Bit depth                                : 8 bits
 Scan type                                : Progressive
 Bits/(Pixel*Frame)                       : 0.323
 Stream size                              : 15.9 GiB (89%)
 Title                                    : Transformers.The.Last.Knight.2017.1080p.BluRay.x264.DTS-HDC
 Writing library                          : x264 core 148 r2665kMod a01e339
 Encoding settings                        : cabac=1 / ref=4 / deblock=1:-3:-3 / analyse=0x3:0x133 / me=umh / subme=11 / psy=1 / fade_compensate=0.00 / psy_rd=0.85:0.00 / mixed_ref=1 / me_range=48 / chroma_me=1 / trellis=2 / 8x8dct=1 / cqm=0 / deadzone=21,11 / fast_pskip=0 / chroma_qp_offset=-2 / threads=24 / lookahead_threads=4 / sliced_threads=0 / nr=0 / decimate=0 / interlaced=0 / bluray_compat=0 / constrained_intra=0 / fgo=0 / bframes=8 / b_pyramid=2 / b_adapt=2 / b_bias=0 / direct=3 / weightb=1 / open_gop=0 / weightp=2 / keyint=240 / keyint_min=24 / scenecut=40 / intra_refresh=0 / rc=2pass / mbtree=0 / bitrate=15000 / ratetol=1.0 / qcomp=0.70 / qpmin=0 / qpmax=69 / qpstep=4 / cplxblur=20.0 / qblur=0.5 / ip_ratio=1.20 / pb_ratio=1.20 / aq=3:0.80
 Default                                  : Yes
 Forced                                   : No

 Audio
 ID                                       : 2
 Format                                   : DTS
 Format/Info                              : Digital Theater Systems
 Mode                                     : 16
 Format settings, Endianness              : Big
 Codec ID                                 : A_DTS
 Duration                                 : 2 h 34 min
 Bit rate mode                            : Constant
 Bit rate                                 : 1 509 kb/s
 Channel(s)                               : 6 channels
 Channel positions                        : Front: L C R, Side: L R, LFE
 Sampling rate                            : 48.0 kHz
 Frame rate                               : 93.750 FPS (512 spf)
 Bit depth                                : 24 bits
 Compression mode                         : Lossy
 Stream size                              : 1.63 GiB (9%)
 Title                                    : Transformers.The.Last.Knight.2017.1080p.BluRay.x264.DTS-HDC
 Language                                 : English
 Default                                  : Yes
 Forced                                   : No

 Text
 ID                                       : 3
 Format                                   : UTF-8
 Codec ID                                 : S_TEXT/UTF8
 Codec ID/Info                            : UTF-8 Plain Text
 Language                                 : English
 Default                                  : Yes
 Forced                                   : No

 Menu
 00:00:00.000                             : en:00:00:00.000
 00:06:36.104                             : en:00:06:36.104
 00:14:03.468                             : en:00:14:03.468
 00:21:45.763                             : en:00:21:45.763
 00:27:53.255                             : en:00:27:53.255
 00:33:53.907                             : en:00:33:53.907
 00:40:08.906                             : en:00:40:08.906
 00:46:58.941                             : en:00:46:58.941
 00:53:25.786                             : en:00:53:25.786
 01:02:02.928                             : en:01:02:02.928
 01:08:47.081                             : en:01:08:47.081
 01:14:37.223                             : en:01:14:37.223
 01:20:10.180                             : en:01:20:10.180
 01:29:13.390                             : en:01:29:13.390
 01:37:59.499                             : en:01:37:59.499
 01:44:57.583                             : en:01:44:57.583
 01:51:15.502                             : en:01:51:15.502
 01:57:59.447                             : en:01:57:59.447
 02:06:09.729                             : en:02:06:09.729
 02:10:54.096                             : en:02:10:54.096
 02:16:01.153                             : en:02:16:01.153
 02:21:42.619                             : en:02:21:42.619
 02:25:17.292                             : en:02:25:17.292


Image Image
Image Image

Image

LINKS:

Transformers.The.Last.Knight.2017.1080p.BluRay.x264.DTS-HD.MA.7.1-HDC.mkv  [20,56 Gb]
Transformers.The.Last.Knight.2017.1080p.BluRay.x264.DTS-HD.MA.7.1-HDC.nfo  [5,0 Kb]
Transformers.The.Last.Knight.2017.1080p.BluRay.x264.DTS-HD.MA.7.1-HDC.srt  [158,9 Kb]

Todos os horários são GMT - 4 Horas
Powered by phpBB © 2001 phpBB Group