PootzForce Evolution

Filmes Alta Definição / High Definition Movies - [1080p BluRay REMUX] First Kill (2017) *FGT*

lost_rider34 - Qui Nov 23, 2017 6:02 am
Assunto: [1080p BluRay REMUX] First Kill (2017) *FGT*
Image


Citação:
Depois de um homem e seu filho testemunharem um tiro de um assassino em um ladrão de banco durante uma viagem de caça, o ladrão de banco leva o menino refém, a fim de recuperar a chave de um armário que contém o dinheiro do assalto ao banco.
Hayden Christensen vai interpretar o homem cujo filho é tomado como refém. Ele está correndo contra o relógio para resgatar o seu filho e, ao mesmo tempo, o chefe de polícia (Bruce Willis) começa a se perguntar se ele pode ter desempenhado um papel no assalto ao banco.

In order to reconnect with his son Danny (Ty Shelton), big shot Wall Street broker Will (Hayden Christensen) takes his family on a hunting trip to the cabin where he grew up. While out hunting with Danny, the trip takes a deadly turn when they stumble upon several robbers and witness the murder of one of the criminals. After becoming entangled in a bank heist gone bad that results in the kidnapping of Danny, Will is forced to help the kidnappers evade the police chief (Bruce Willis) and recover the stolen loot in exchange for his son's life.


[imdb]http://www.imdb.com/title/tt5884234[/imdb]


Video
 ID                                       : 1
 Format                                   : AVC
 Format/Info                              : Advanced Video Codec
 Format profile                           : High@L4.1
 Format settings, CABAC                   : Yes
 Format settings, ReFrames                : 4 frames
 Codec ID                                 : V_MPEG4/ISO/AVC
 Duration                                 : 1 h 41 min
 Bit rate mode                            : Variable
 Maximum bit rate                         : 37.0 Mb/s
 Width                                    : 1 920 pixels
 Height                                   : 1 080 pixels
 Display aspect ratio                     : 16:9
 Frame rate mode                          : Constant
 Frame rate                               : 23.976 (24000/1001) FPS
 Color space                              : YUV
 Chroma subsampling                       : 4:2:0
 Bit depth                                : 8 bits
 Scan type                                : Progressive
 Title                                    : First.Kill.2017.1080p.BluRay.REMUX.AVC.DTS-HD.MA.5.1-FGT
 Language                                 : English
 Default                                  : No
 Forced                                   : No

 Audio #1
 ID                                       : 2
 Format                                   : DTS
 Format/Info                              : Digital Theater Systems
 Format profile                           : MA / Core
 Mode                                     : 16
 Format settings, Endianness              : Big
 Codec ID                                 : A_DTS
 Duration                                 : 1 h 41 min
 Bit rate mode                            : Variable / Constant
 Bit rate                                 : Unknown / 1 509 kb/s
 Channel(s)                               : 6 channels
 Channel positions                        : Front: L C R, Side: L R, LFE
 Sampling rate                            : 48.0 kHz
 Frame rate                               : 93.750 FPS (512 spf)
 Bit depth                                : 24 bits
 Compression mode                         : Lossless / Lossy
 Title                                    : First.Kill.2017.1080p.BluRay.REMUX.AVC.DTS-HD.MA.5.1-FGT
 Language                                 : English
 Default                                  : Yes
 Forced                                   : No

 Audio #2
 ID                                       : 3
 Format                                   : DTS
 Format/Info                              : Digital Theater Systems
 Mode                                     : 16
 Format settings, Endianness              : Big
 Codec ID                                 : A_DTS
 Duration                                 : 1 h 41 min
 Bit rate mode                            : Constant
 Bit rate                                 : 1 509 kb/s
 Channel(s)                               : 6 channels
 Channel positions                        : Front: L C R, Side: L R, LFE
 Sampling rate                            : 48.0 kHz
 Frame rate                               : 93.750 FPS (512 spf)
 Bit depth                                : 24 bits
 Compression mode                         : Lossy
 Stream size                              : 1.07 GiB (4%)
 Title                                    : First.Kill.2017.1080p.BluRay.REMUX.AVC.DTS-HD.MA.5.1-FGT
 Language                                 : English
 Default                                  : No
 Forced                                   : No

 Audio #3
 ID                                       : 4
 Format                                   : AC-3
 Format/Info                              : Audio Coding 3
 Format settings, Endianness              : Big
 Codec ID                                 : A_AC3
 Duration                                 : 1 h 41 min
 Bit rate mode                            : Constant
 Bit rate                                 : 192 kb/s
 Channel(s)                               : 2 channels
 Channel positions                        : Front: L R
 Sampling rate                            : 48.0 kHz
 Frame rate                               : 31.250 FPS (1536 spf)
 Bit depth                                : 16 bits
 Compression mode                         : Lossy
 Stream size                              : 140 MiB (0%)
 Title                                    : First.Kill.2017.1080p.BluRay.REMUX.AVC.DTS-HD.MA.5.1-FGT
 Language                                 : English
 Service kind                             : Complete Main
 Default                                  : No
 Forced                                   : No

 Text #1
 ID                                       : 5
 Format                                   : PGS
 Muxing mode                              : zlib
 Codec ID                                 : S_HDMV/PGS
 Codec ID/Info                            : Picture based subtitle format used on BDs/HD-DVDs
 Title                                    : English-PGS
 Language                                 : English
 Default                                  : Yes
 Forced                                   : No

 Text #2
 ID                                       : 6
 Format                                   : PGS
 Muxing mode                              : zlib
 Codec ID                                 : S_HDMV/PGS
 Codec ID/Info                            : Picture based subtitle format used on BDs/HD-DVDs
 Title                                    : English-SDH-PGS
 Language                                 : English
 Default                                  : No
 Forced                                   : No

 Text #3
 ID                                       : 7
 Format                                   : PGS
 Muxing mode                              : zlib
 Codec ID                                 : S_HDMV/PGS
 Codec ID/Info                            : Picture based subtitle format used on BDs/HD-DVDs
 Title                                    : Spanish-PGS
 Language                                 : Spanish
 Default                                  : No
 Forced                                   : No

 Menu
 00:00:00.000                             : en:Chapter 01
 00:06:17.960                             : en:Chapter 02
 00:12:44.013                             : en:Chapter 03
 00:18:11.048                             : en:Chapter 04
 00:27:18.303                             : en:Chapter 05
 00:31:22.672                             : en:Chapter 06
 00:36:54.337                             : en:Chapter 07
 00:42:25.042                             : en:Chapter 08
 00:47:59.960                             : en:Chapter 09
 00:54:46.992                             : en:Chapter 10
 00:59:12.423                             : en:Chapter 11
 01:06:39.537                             : en:Chapter 12
 01:12:08.907                             : en:Chapter 13
 01:18:46.596                             : en:Chapter 14
 01:24:15.800                             : en:Chapter 15
 01:31:56.093                             : en:Chapter 16



Image Image
Image Image

Image


LINKS:

First.Kill.2017.1080p.BluRay.REMUX.AVC.DTS-HD.MA.5.1-FGT.mkv  [28,30 Gb]
First.Kill.2017.1080p.BluRay.REMUX.AVC.DTS-HD.MA.5.1-FGT.nfo  [7,1 Kb]


Legendas: Image
First.Kill.2017.1080p.BluRay.REMUX.AVC.DTS-HD.MA.5.1-FGT.srt  [68,2 Kb]

Todos os horários são GMT - 4 Horas
Powered by phpBB © 2001 phpBB Group