PootzForce Evolution

Filmes Alta Definição / High Definition Movies - [BDRip 1080p] Home Again (2017) *MT*

lost_rider34 - Ter Dez 26, 2017 11:39 am
Assunto: [BDRip 1080p] Home Again (2017) *MT*
Image

Citação:
Recém separada do marido, Alice Kinney (Reese Witherspoon) decide recomeçar a sua via se mudando para sua cidade natal, Los Angeles, com as suas duas filhas. Durante uma comemoração noturna do seu aniversário de 40 anos, Alice conhece três aspirantes a cineastas que precisam de um lugar para morar. Ela deixa os rapazes permanecerem em seu quarto de hóspede temporariamente, mas o acordo gera situações inesperadas. A nova família de Alice e um novo amor em vista chegam a um ponto crucial quando seu marido aparece.

HOME AGAIN stars Reese Witherspoon as Alice Kinney in a modern romantic comedy. Recently separated from her husband, (Michael Sheen), Alice decides to start over by moving back to her hometown of Los Angeles with her two young daughters. During a night out on her 40th birthday, Alice meets three aspiring filmmakers who happen to be in need of a place to live. Alice agrees to let the guys stay in her guest house temporarily, but the arrangement ends up unfolding in unexpected ways. Alice's unlikely new family and new romance comes to a crashing halt when her ex-husband shows up, suitcase in hand. HOME AGAIN is a story of love, friendship, and the families we create. And one very big life lesson: Starting over is not for beginners.


[imdb]http://www.imdb.com/title/tt5719700/[/imdb]


Video
 ID                                       : 1
 Format                                   : AVC
 Format/Info                              : Advanced Video Codec
 Format profile                           : High@L4.1
 Format settings                          : CABAC / 4 Ref Frames
 Format settings, CABAC                   : Yes
 Format settings, ReFrames                : 4 frames
 Codec ID                                 : V_MPEG4/ISO/AVC
 Duration                                 : 1 h 37 min
 Bit rate                                 : 13.7 Mb/s
 Width                                    : 1 920 pixels
 Height                                   : 1 036 pixels
 Display aspect ratio                     : 1.85:1
 Frame rate mode                          : Constant
 Frame rate                               : 23.976 (24000/1001) FPS
 Color space                              : YUV
 Chroma subsampling                       : 4:2:0
 Bit depth                                : 8 bits
 Scan type                                : Progressive
 Bits/(Pixel*Frame)                       : 0.288
 Stream size                              : 9.34 GiB (81%)
 Writing library                          : x264 core 142 r2431+42 c69a006 tMod [8-bit@4:2:0 X86_64]
 Encoding settings                        : cabac=1 / ref=4 / deblock=1:-3:-3 / analyse=0x3:0x113 / me=umh / subme=10 / psy=1 / fade_compensate=0.00 / psy_rd=1.00:0.05 / mixed_ref=1 / me_range=48 / chroma_me=1 / trellis=2 / 8x8dct=1 / cqm=0 / deadzone=21,11 / fast_pskip=0 / chroma_qp_offset=-2 / threads=12 / lookahead_threads=2 / sliced_threads=0 / nr=0 / decimate=1 / interlaced=0 / bluray_compat=0 / constrained_intra=0 / fgo=0 / bframes=8 / b_pyramid=2 / b_adapt=2 / b_bias=0 / direct=3 / weightb=1 / open_gop=0 / weightp=2 / keyint=250 / keyint_min=23 / scenecut=40 / intra_refresh=0 / rc_lookahead=40 / rc=crf / mbtree=0 / crf=19.0000 / qcomp=0.60 / qpmin=0:0:0 / qpmax=69:69:69 / qpstep=4 / vbv_maxrate=50000 / vbv_bufsize=45000 / crf_max=0.0 / nal_hrd=none / filler=0 / ip_ratio=1.40 / pb_ratio=1.30 / aq=3:1.00 / aq-sensitivity=10.00 / aq-factor=1.00:1.00:1.00 / aq2=0 / aq3=0
 Language                                 : English
 Default                                  : Yes
 Forced                                   : No
 Color range                              : Limited
 Matrix coefficients                      : BT.709

 Audio
 ID                                       : 2
 Format                                   : DTS
 Format/Info                              : Digital Theater Systems
 Format profile                           : MA / Core
 Codec ID                                 : A_DTS
 Duration                                 : 1 h 37 min
 Bit rate mode                            : Variable / Constant
 Bit rate                                 : 3 171 kb/s / 1 509 kb/s
 Channel(s)                               : 6 channels
 Channel positions                        : Front: L C R, Side: L R, LFE
 Sampling rate                            : 48.0 kHz
 Frame rate                               : 93.750 FPS (512 SPF)
 Bit depth                                : 24 bits
 Compression mode                         : Lossless / Lossy
 Stream size                              : 2.15 GiB (19%)
 Language                                 : English
 Default                                  : Yes
 Forced                                   : No


Image Image
Image Image

Image

Links:

Home.Again.2017.1080p.BluRay.x264.DTS-HD.MA.5.1-MT.mkv  [11,49 Gb]

Image
Home.Again.2017.1080p.BluRay.x264.DTS-HD.MA.5.1-MT.srt  [127,5 Kb]

Todos os horários são GMT - 4 Horas
Powered by phpBB © 2001 phpBB Group