PootzForce Evolution

Filmes Alta Definição / High Definition Movies - [1080p BluRay DTS] The Foreigner (2017) *FGT*

lost_rider34 - Sáb Jan 06, 2018 6:19 pm
Assunto: [1080p BluRay DTS] The Foreigner (2017) *FGT*
Image

Citação:
Quan (Jackie Chan) é dono de um típico restaurantes chinês em Londres, capital da Inglaterra. Após um misterioso ataque de um grupo de terroristas irlandeses ao seu estabelecimento, ele tem sua vida e família devastadas. Sem muito apoio da polícia local, ele terá que ultrapassar seus limites físicos e morais, buscando vingança com suas próprias mãos.

The Foreigner, starring Jackie Chan and Pierce Brosnan, is a timely action thriller from the director of Casino Royale. The film tells the story of humble London businessman Quan (Chan), whose long-buried past erupts in a revenge-fueled vendetta when the only person left for him to love -- his teenage daughter -- is taken from him in a senseless act of politically-motivated terrorism. In his relentless search for the identity of the terrorists, Quan is forced into a cat-and-mouse conflict with a British government official (Brosnan), whose own past may hold clues to the identities of the elusive killers.


[imdb]http://www.imdb.com/title/tt1615160/[/imdb]

Video
 ID                                       : 1
 Format                                   : AVC
 Format/Info                              : Advanced Video Codec
 Format profile                           : High@L4.1
 Format settings                          : CABAC / 5 Ref Frames
 Format settings, CABAC                   : Yes
 Format settings, ReFrames                : 5 frames
 Codec ID                                 : V_MPEG4/ISO/AVC
 Duration                                 : 1 h 53 min
 Bit rate                                 : 9 486 kb/s
 Width                                    : 1 920 pixels
 Height                                   : 808 pixels
 Display aspect ratio                     : 2.40:1
 Frame rate mode                          : Constant
 Frame rate                               : 23.976 FPS
 Color space                              : YUV
 Chroma subsampling                       : 4:2:0
 Bit depth                                : 8 bits
 Scan type                                : Progressive
 Bits/(Pixel*Frame)                       : 0.255
 Stream size                              : 7.54 GiB (70%)
 Title                                    : The.Foreigner.2017.1080p.BluRay.x264.DTS-HD.MA.7.1-FGT
 Writing library                          : x264 core 152 r2851 ba24899
 Encoding settings                        : cabac=1 / ref=5 / deblock=1:0:0 / analyse=0x3:0x133 / me=umh / subme=7 / psy=1 / psy_rd=1.00:0.00 / mixed_ref=1 / me_range=16 / chroma_me=1 / trellis=1 / 8x8dct=1 / cqm=0 / deadzone=21,11 / fast_pskip=0 / chroma_qp_offset=-2 / threads=24 / lookahead_threads=4 / sliced_threads=0 / nr=0 / decimate=1 / interlaced=0 / bluray_compat=0 / constrained_intra=0 / bframes=3 / b_pyramid=2 / b_adapt=1 / b_bias=0 / direct=1 / weightb=1 / open_gop=0 / weightp=2 / keyint=250 / keyint_min=23 / scenecut=40 / intra_refresh=0 / rc_lookahead=40 / rc=2pass / mbtree=1 / bitrate=9486 / ratetol=1.0 / qcomp=0.60 / qpmin=0 / qpmax=69 / qpstep=4 / cplxblur=20.0 / qblur=0.5 / ip_ratio=1.40 / aq=1:1.00
 Language                                 : English
 Default                                  : Yes
 Forced                                   : No

 Audio
 ID                                       : 2
 Format                                   : DTS
 Format/Info                              : Digital Theater Systems
 Format profile                           : MA / Core
 Codec ID                                 : A_DTS
 Duration                                 : 1 h 53 min
 Bit rate mode                            : Variable / Constant
 Bit rate                                 : 4 076 kb/s / 1 509 kb/s
 Channel(s)                               : 8 channels / 6 channels
 Channel positions                        : Front: L C R, Side: L R, Back: L R, LFE / Front: L C R, Side: L R, LFE
 Sampling rate                            : 48.0 kHz
 Frame rate                               : 93.750 FPS (512 SPF)
 Bit depth                                : 24 bits
 Compression mode                         : Lossless / Lossy
 Stream size                              : 3.24 GiB (30%)
 Title                                    : The.Foreigner.2017.1080p.BluRay.x264.DTS-HD.MA.7.1-FGT
 Language                                 : English
 Default                                  : Yes
 Forced                                   : No

 Text #1
 ID                                       : 3
 Format                                   : PGS
 Muxing mode                              : zlib
 Codec ID                                 : S_HDMV/PGS
 Codec ID/Info                            : Picture based subtitle format used on BDs/HD-DVDs
 Duration                                 : 1 h 44 min
 Bit rate                                 : 39.7 kb/s
 Count of elements                        : 2784
 Stream size                              : 29.7 MiB (0%)
 Title                                    : English-PGS
 Language                                 : English
 Default                                  : Yes
 Forced                                   : No

 Text #2
 ID                                       : 4
 Format                                   : PGS
 Muxing mode                              : zlib
 Codec ID                                 : S_HDMV/PGS
 Codec ID/Info                            : Picture based subtitle format used on BDs/HD-DVDs
 Duration                                 : 1 h 51 min
 Bit rate                                 : 26.8 kb/s
 Count of elements                        : 2298
 Stream size                              : 21.4 MiB (0%)
 Title                                    : Chinese-PGS
 Language                                 : Chinese
 Default                                  : No
 Forced                                   : No

 Menu
 00:00:00.000                             : en:00:00:00.000
 00:08:19.541                             : en:00:08:19.541
 00:15:49.574                             : en:00:15:49.574
 00:21:47.765                             : en:00:21:47.765
 00:27:04.164                             : en:00:27:04.164
 00:32:09.511                             : en:00:32:09.511
 00:35:24.164                             : en:00:35:24.164
 00:38:30.934                             : en:00:38:30.934
 00:43:50.169                             : en:00:43:50.169
 00:47:38.189                             : en:00:47:38.189
 00:54:10.497                             : en:00:54:10.497
 01:01:42.324                             : en:01:01:42.324
 01:08:07.333                             : en:01:08:07.333
 01:14:14.033                             : en:01:14:14.033
 01:18:42.927                             : en:01:18:42.927
 01:23:26.877                             : en:01:23:26.877
 01:29:18.812                             : en:01:29:18.812
 01:38:55.012                             : en:01:38:55.012
 01:43:45.928                             : en:01:43:45.928
 01:47:09.298                             : en:01:47:09.298


Image Image
Image Image

Image

Links:

The.Foreigner.2017.1080p.BluRay.x264.DTS-HD.MA.7.1-FGT.mkv  [10,80 Gb]

Legendas: Image
The.Foreigner.2017.1080p.BluRay.x264.DTS-HD.MA.7.1-FGT.srt  [91,8 Kb]

Todos os horários são GMT - 4 Horas
Powered by phpBB © 2001 phpBB Group