PootzForce Evolution

Filmes Alta Definição / High Definition Movies - [BDRip 1080p REMUX] Dunkirk (2017) *FGT*

lost_rider34 - Ter Jan 09, 2018 8:33 am
Assunto: [BDRip 1080p REMUX] Dunkirk (2017) *FGT*
Image

Citação:
Na Operação Dínamo, mais conhecida como a Evacuação de Dunquerque, soldados aliados da Bélgica, do Império Britânico e da França são rodeados pelo exército alemão e devem ser resgatados durante uma feroz batalha no início da Segunda Guerra Mundial. A história acompanha três momentos distintos: uma hora de confronto no céu, onde o piloto Farrier (Tom Hardy) precisa destruir um avião inimigo, um dia inteiro em alto mar, onde o civil britânico Dawson (Mark Rylance) leva seu barco de passeio para ajudar a resgatar o exército de seu país, e uma semana na praia, onde o jovem soldado Tommy (Fionn Whitehead) busca escapar a qualquer preço.

Evacuation of Allied soldiers from Belgium| the British Empire and France who were cut off and surrounded by the German army from the beaches and harbor of Dunkirk France between May 26- June 04 1940 during Battle of France in World War II.


[imbd]http://www.imdb.com/title/tt5013056/[/imbd]


Video
 ID                                       : 1
 Format                                   : AVC
 Format/Info                              : Advanced Video Codec
 Format profile                           : High@L4.1
 Format settings                          : CABAC / 4 Ref Frames
 Format settings, CABAC                   : Yes
 Format settings, ReFrames                : 4 frames
 Codec ID                                 : V_MPEG4/ISO/AVC
 Duration                                 : 1 h 46 min
 Bit rate mode                            : Variable
 Maximum bit rate                         : 37.0 Mb/s
 Width                                    : 1 920 pixels
 Height                                   : 1 080 pixels
 Display aspect ratio                     : 16:9
 Frame rate mode                          : Constant
 Frame rate                               : 23.976 (24000/1001) FPS
 Color space                              : YUV
 Chroma subsampling                       : 4:2:0
 Bit depth                                : 8 bits
 Scan type                                : Progressive
 Title                                    : Dunkirk.2017.1080p.BluRay.REMUX.AVC.DTS-HD.MA.5.1-FGT
 Language                                 : English
 Default                                  : No
 Forced                                   : No

 Audio #1
 ID                                       : 2
 Format                                   : DTS
 Format/Info                              : Digital Theater Systems
 Format profile                           : MA / Core
 Codec ID                                 : A_DTS
 Duration                                 : 1 h 46 min
 Bit rate mode                            : Variable / Constant
 Bit rate                                 : Unknown / 1 509 kb/s
 Channel(s)                               : 6 channels
 Channel positions                        : Front: L C R, Side: L R, LFE
 Sampling rate                            : 48.0 kHz
 Frame rate                               : 93.750 FPS (512 SPF)
 Bit depth                                : 16 bits
 Compression mode                         : Lossless / Lossy
 Title                                    : Dunkirk.2017.1080p.BluRay.REMUX.AVC.DTS-HD.MA.5.1-FGT
 Language                                 : English
 Default                                  : Yes
 Forced                                   : No

 Audio #2
 ID                                       : 3
 Format                                   : DTS
 Format/Info                              : Digital Theater Systems
 Codec ID                                 : A_DTS
 Duration                                 : 1 h 46 min
 Bit rate mode                            : Constant
 Bit rate                                 : 1 509 kb/s
 Channel(s)                               : 6 channels
 Channel positions                        : Front: L C R, Side: L R, LFE
 Sampling rate                            : 48.0 kHz
 Frame rate                               : 93.750 FPS (512 SPF)
 Bit depth                                : 16 bits
 Compression mode                         : Lossy
 Stream size                              : 1.12 GiB (4%)
 Title                                    : Dunkirk.2017.1080p.BluRay.REMUX.AVC.DTS-HD.MA.5.1-FGT
 Language                                 : English
 Default                                  : No
 Forced                                   : No

 Audio #3
 ID                                       : 4
 Format                                   : AC-3
 Format/Info                              : Audio Coding 3
 Codec ID                                 : A_AC3
 Duration                                 : 1 h 46 min
 Bit rate mode                            : Constant
 Bit rate                                 : 448 kb/s
 Channel(s)                               : 6 channels
 Channel positions                        : Front: L C R, Side: L R, LFE
 Sampling rate                            : 48.0 kHz
 Frame rate                               : 31.250 FPS (1536 SPF)
 Bit depth                                : 16 bits
 Compression mode                         : Lossy
 Stream size                              : 342 MiB (1%)
 Title                                    : Dunkirk.2017.1080p.BluRay.REMUX.AVC.DTS-HD.MA.5.1-FGT
 Language                                 : English
 Service kind                             : Complete Main
 Default                                  : No
 Forced                                   : No

 Audio #4
 ID                                       : 5
 Format                                   : AC-3
 Format/Info                              : Audio Coding 3
 Codec ID                                 : A_AC3
 Duration                                 : 1 h 46 min
 Bit rate mode                            : Constant
 Bit rate                                 : 448 kb/s
 Channel(s)                               : 6 channels
 Channel positions                        : Front: L C R, Side: L R, LFE
 Sampling rate                            : 48.0 kHz
 Frame rate                               : 31.250 FPS (1536 SPF)
 Bit depth                                : 16 bits
 Compression mode                         : Lossy
 Stream size                              : 342 MiB (1%)
 Title                                    : Dunkirk.2017.1080p.BluRay.REMUX.AVC.DTS-HD.MA.5.1-FGT
 Language                                 : French
 Service kind                             : Complete Main
 Default                                  : No
 Forced                                   : No

 Audio #5
 ID                                       : 6
 Format                                   : AC-3
 Format/Info                              : Audio Coding 3
 Codec ID                                 : A_AC3
 Duration                                 : 1 h 46 min
 Bit rate mode                            : Constant
 Bit rate                                 : 448 kb/s
 Channel(s)                               : 6 channels
 Channel positions                        : Front: L C R, Side: L R, LFE
 Sampling rate                            : 48.0 kHz
 Frame rate                               : 31.250 FPS (1536 SPF)
 Bit depth                                : 16 bits
 Compression mode                         : Lossy
 Stream size                              : 342 MiB (1%)
 Title                                    : Dunkirk.2017.1080p.BluRay.REMUX.AVC.DTS-HD.MA.5.1-FGT
 Language                                 : Spanish
 Service kind                             : Complete Main
 Default                                  : No
 Forced                                   : No

 Audio #6
 ID                                       : 7
 Format                                   : AC-3
 Format/Info                              : Audio Coding 3
 Codec ID                                 : A_AC3
 Duration                                 : 1 h 46 min
 Bit rate mode                            : Constant
 Bit rate                                 : 448 kb/s
 Channel(s)                               : 6 channels
 Channel positions                        : Front: L C R, Side: L R, LFE
 Sampling rate                            : 48.0 kHz
 Frame rate                               : 31.250 FPS (1536 SPF)
 Bit depth                                : 16 bits
 Compression mode                         : Lossy
 Stream size                              : 342 MiB (1%)
 Title                                    : Dunkirk.2017.1080p.BluRay.REMUX.AVC.DTS-HD.MA.5.1-FGT
 Language                                 : Portuguese
 Service kind                             : Complete Main
 Default                                  : No
 Forced                                   : No

 Text #1
 ID                                       : 8
 Format                                   : PGS
 Muxing mode                              : zlib
 Codec ID                                 : S_HDMV/PGS
 Codec ID/Info                            : Picture based subtitle format used on BDs/HD-DVDs
 Title                                    : English-PGS
 Language                                 : English
 Default                                  : Yes
 Forced                                   : No

 Text #2
 ID                                       : 9
 Format                                   : PGS
 Muxing mode                              : zlib
 Codec ID                                 : S_HDMV/PGS
 Codec ID/Info                            : Picture based subtitle format used on BDs/HD-DVDs
 Title                                    : French-PGS
 Language                                 : French
 Default                                  : No
 Forced                                   : No

 Text #3
 ID                                       : 10
 Format                                   : PGS
 Muxing mode                              : zlib
 Codec ID                                 : S_HDMV/PGS
 Codec ID/Info                            : Picture based subtitle format used on BDs/HD-DVDs
 Title                                    : Spanish-PGS
 Language                                 : Spanish
 Default                                  : No
 Forced                                   : No

 Text #4
 ID                                       : 11
 Format                                   : PGS
 Muxing mode                              : zlib
 Codec ID                                 : S_HDMV/PGS
 Codec ID/Info                            : Picture based subtitle format used on BDs/HD-DVDs
 Title                                    : Portuguese-PGS
 Language                                 : Portuguese
 Default                                  : No
 Forced                                   : No

 Text #5
 ID                                       : 12
 Format                                   : PGS
 Muxing mode                              : zlib
 Codec ID                                 : S_HDMV/PGS
 Codec ID/Info                            : Picture based subtitle format used on BDs/HD-DVDs
 Title                                    : French-FORCED-PGS
 Language                                 : French
 Default                                  : No
 Forced                                   : No

 Text #6
 ID                                       : 13
 Format                                   : PGS
 Muxing mode                              : zlib
 Codec ID                                 : S_HDMV/PGS
 Codec ID/Info                            : Picture based subtitle format used on BDs/HD-DVDs
 Title                                    : Spanish-FORCED-PGS
 Language                                 : Spanish
 Default                                  : No
 Forced                                   : No

 Text #7
 ID                                       : 14
 Format                                   : PGS
 Muxing mode                              : zlib
 Codec ID                                 : S_HDMV/PGS
 Codec ID/Info                            : Picture based subtitle format used on BDs/HD-DVDs
 Title                                    : Portuguese-FORCED-PGS
 Language                                 : Portuguese
 Default                                  : No
 Forced                                   : No

 Menu
 00:00:00.000                             : en:Chapter 01
 00:08:51.364                             : en:Chapter 02
 00:20:13.754                             : en:Chapter 03
 00:29:07.620                             : en:Chapter 04
 00:42:35.261                             : en:Chapter 05
 00:52:48.206                             : en:Chapter 06
 01:04:32.827                             : en:Chapter 07
 01:12:50.824                             : en:Chapter 08
 01:25:55.024                             : en:Chapter 09
 01:33:23.347                             : en:Chapter 10
 01:39:13.906                             : en:Chapter 11


Image Image
Image Image

Image

LINKS:

Dunkirk.2017.1080p.BluRay.REMUX.AVC.DTS-HD.MA.5.1-FGT.mkv  [28,45 Gb]
Dunkirk.2017.1080p.BluRay.REMUX.AVC.DTS-HD.MA.5.1-FGT.nfo  [11,9 Kb]

Legendas: Image
Dunkirk.2017.1080p.BluRay.REMUX.AVC.DTS-HD.MA.5.1-FGT.srt  [46,0 Kb]

praia901 - Ter Jan 09, 2018 2:27 pm
Assunto:
Valeu.
Todos os horários são GMT - 4 Horas
Powered by phpBB © 2001 phpBB Group