PootzForce Evolution

Filmes Alta Definição / High Definition Movies - [1080p BluRay REMUX] Blade Runner 2049 (2017) *FGT*

lost_rider34 - Ter Jan 09, 2018 9:40 am
Assunto: [1080p BluRay REMUX] Blade Runner 2049 (2017) *FGT*
Image

Citação:
Trinta anos após os acontecimentos do primeiro filme, a humanidade está novamente ameaçada, e dessa vez o perigo pode ser ainda maior. Isso porque o novato oficial K (Ryan Gosling), desenterrou um terrível segredo que tem o potencial de mergulhar a sociedade no completo caos. A descoberta acaba levando-o a uma busca frenética por Rick Deckard (Harrison Ford), desaparecido há 30 anos.

Thirty years after the events of the first film| a new blade runner| LAPD Officer K (Ryan Gosling)| unearths a long-buried secret that has the potential to plunge what's left of society into chaos. K's discovery leads him on a quest to find Rick Deckard (Harrison Ford)| a former LAPD blade runner who has been missing for 30 years.


[imdb]http://www.imdb.com/title/tt1856101/[/imdb]


Video
 ID                                       : 1
 Format                                   : AVC
 Format/Info                              : Advanced Video Codec
 Format profile                           : High@L4.1
 Format settings                          : CABAC / 2 Ref Frames
 Format settings, CABAC                   : Yes
 Format settings, ReFrames                : 2 frames
 Codec ID                                 : V_MPEG4/ISO/AVC
 Duration                                 : 2 h 43 min
 Bit rate mode                            : Variable
 Bit rate                                 : 20.3 Mb/s
 Width                                    : 1 920 pixels
 Height                                   : 1 080 pixels
 Display aspect ratio                     : 16:9
 Frame rate mode                          : Constant
 Frame rate                               : 23.976 (24000/1001) FPS
 Color space                              : YUV
 Chroma subsampling                       : 4:2:0
 Bit depth                                : 8 bits
 Scan type                                : Progressive
 Bits/(Pixel*Frame)                       : 0.409
 Stream size                              : 23.3 GiB (57%)
 Title                                    : Blade.Runner.2049.2017.1080p.BluRay.REMUX.AVC.DTS-HD.MA.TrueHD.7.1.Atmos-FGT
 Language                                 : English
 Default                                  : No
 Forced                                   : No

 Audio #1
 ID                                       : 2
 Format                                   : TrueHD
 Format profile                           : TrueHD+Atmos / TrueHD
 Codec ID                                 : A_TRUEHD
 Duration                                 : 2 h 43 min
 Bit rate mode                            : Variable
 Bit rate                                 : 3 710 kb/s
 Maximum bit rate                         : 7 251 kb/s
 Channel(s)                               : Object Based / 8 channels
 Channel positions                        : Object Based / Front: L C R, Side: L R, Back: L R, LFE
 Sampling rate                            :  / 48.0 kHz
 Frame rate                               : 1 200.000 FPS (40 SPF)
 Compression mode                         : Lossless
 Stream size                              : 4.25 GiB (10%)
 Title                                    : Blade.Runner.2049.2017.1080p.BluRay.REMUX.AVC.DTS-HD.MA.TrueHD.7.1.Atmos-FGT
 Language                                 : English
 Default                                  : Yes
 Forced                                   : No

 Audio #2
 ID                                       : 3
 Format                                   : DTS
 Format/Info                              : Digital Theater Systems
 Format profile                           : MA / Core
 Codec ID                                 : A_DTS
 Duration                                 : 2 h 43 min
 Bit rate mode                            : Variable / Constant
 Bit rate                                 : 3 942 kb/s / 1 509 kb/s
 Channel(s)                               : 8 channels / 6 channels
 Channel positions                        : Front: L C R, Side: L R, Back: L R, LFE / Front: L C R, Side: L R, LFE
 Sampling rate                            : 48.0 kHz
 Frame rate                               : 93.750 FPS (512 SPF)
 Bit depth                                : 24 bits
 Compression mode                         : Lossless / Lossy
 Stream size                              : 4.51 GiB (11%)
 Title                                    : Blade.Runner.2049.2017.1080p.BluRay.REMUX.AVC.DTS-HD.MA.TrueHD.7.1.Atmos-FGT
 Language                                 : English
 Default                                  : No
 Forced                                   : No

 Audio #3
 ID                                       : 4
 Format                                   : AC-3
 Format/Info                              : Audio Coding 3
 Codec ID                                 : A_AC3
 Duration                                 : 2 h 43 min
 Bit rate mode                            : Constant
 Bit rate                                 : 448 kb/s
 Channel(s)                               : 6 channels
 Channel positions                        : Front: L C R, Side: L R, LFE
 Sampling rate                            : 48.0 kHz
 Frame rate                               : 31.250 FPS (1536 SPF)
 Bit depth                                : 16 bits
 Compression mode                         : Lossy
 Stream size                              : 525 MiB (1%)
 Title                                    : Blade.Runner.2049.2017.1080p.BluRay.REMUX.AVC.DTS-HD.MA.TrueHD.7.1.Atmos-FGT
 Language                                 : English
 Service kind                             : Complete Main
 Default                                  : No
 Forced                                   : No

 Audio #4
 ID                                       : 5
 Format                                   : DTS
 Format/Info                              : Digital Theater Systems
 Format profile                           : MA / Core
 Codec ID                                 : A_DTS
 Duration                                 : 2 h 43 min
 Bit rate mode                            : Variable / Constant
 Bit rate                                 : 3 840 kb/s / 1 509 kb/s
 Channel(s)                               : 6 channels
 Channel positions                        : Front: L C R, Side: L R, LFE
 Sampling rate                            : 48.0 kHz
 Frame rate                               : 93.750 FPS (512 SPF)
 Bit depth                                : 24 bits
 Compression mode                         : Lossless / Lossy
 Stream size                              : 4.38 GiB (11%)
 Title                                    : Blade.Runner.2049.2017.1080p.BluRay.REMUX.AVC.DTS-HD.MA.TrueHD.7.1.Atmos-FGT
 Language                                 : English
 Default                                  : No
 Forced                                   : No

 Audio #5
 ID                                       : 6
 Format                                   : DTS
 Format/Info                              : Digital Theater Systems
 Codec ID                                 : A_DTS
 Duration                                 : 2 h 43 min
 Bit rate mode                            : Constant
 Bit rate                                 : 1 509 kb/s
 Channel(s)                               : 6 channels
 Channel positions                        : Front: L C R, Side: L R, LFE
 Sampling rate                            : 48.0 kHz
 Frame rate                               : 93.750 FPS (512 SPF)
 Bit depth                                : 24 bits
 Compression mode                         : Lossy
 Stream size                              : 1.73 GiB (4%)
 Title                                    : Blade.Runner.2049.2017.1080p.BluRay.REMUX.AVC.DTS-HD.MA.TrueHD.7.1.Atmos-FGT
 Language                                 : English
 Default                                  : No
 Forced                                   : No

 Audio #6
 ID                                       : 7
 Format                                   : AC-3
 Format/Info                              : Audio Coding 3
 Codec ID                                 : A_AC3
 Duration                                 : 2 h 43 min
 Bit rate mode                            : Constant
 Bit rate                                 : 640 kb/s
 Channel(s)                               : 6 channels
 Channel positions                        : Front: L C R, Side: L R, LFE
 Sampling rate                            : 48.0 kHz
 Frame rate                               : 31.250 FPS (1536 SPF)
 Bit depth                                : 16 bits
 Compression mode                         : Lossy
 Stream size                              : 750 MiB (2%)
 Title                                    : Blade.Runner.2049.2017.1080p.BluRay.REMUX.AVC.DTS-HD.MA.TrueHD.7.1.Atmos-FGT
 Language                                 : English
 Service kind                             : Complete Main
 Default                                  : No
 Forced                                   : No

 Audio #7
 ID                                       : 8
 Format                                   : AC-3
 Format/Info                              : Audio Coding 3
 Codec ID                                 : A_AC3
 Duration                                 : 2 h 43 min
 Bit rate mode                            : Constant
 Bit rate                                 : 640 kb/s
 Channel(s)                               : 6 channels
 Channel positions                        : Front: L C R, Side: L R, LFE
 Sampling rate                            : 48.0 kHz
 Frame rate                               : 31.250 FPS (1536 SPF)
 Bit depth                                : 16 bits
 Compression mode                         : Lossy
 Stream size                              : 750 MiB (2%)
 Title                                    : Blade.Runner.2049.2017.1080p.BluRay.REMUX.AVC.DTS-HD.MA.TrueHD.7.1.Atmos-FGT
 Language                                 : French
 Service kind                             : Complete Main
 Default                                  : No
 Forced                                   : No

 Audio #8
 ID                                       : 9
 Format                                   : AC-3
 Format/Info                              : Audio Coding 3
 Codec ID                                 : A_AC3
 Duration                                 : 2 h 43 min
 Bit rate mode                            : Constant
 Bit rate                                 : 640 kb/s
 Channel(s)                               : 6 channels
 Channel positions                        : Front: L C R, Side: L R, LFE
 Sampling rate                            : 48.0 kHz
 Frame rate                               : 31.250 FPS (1536 SPF)
 Bit depth                                : 16 bits
 Compression mode                         : Lossy
 Stream size                              : 750 MiB (2%)
 Title                                    : Blade.Runner.2049.2017.1080p.BluRay.REMUX.AVC.DTS-HD.MA.TrueHD.7.1.Atmos-FGT
 Language                                 : Spanish
 Service kind                             : Complete Main
 Default                                  : No
 Forced                                   : No

 Text #1
 ID                                       : 10
 Format                                   : PGS
 Muxing mode                              : zlib
 Codec ID                                 : S_HDMV/PGS
 Codec ID/Info                            : Picture based subtitle format used on BDs/HD-DVDs
 Duration                                 : 2 h 29 min
 Bit rate                                 : 21.2 kb/s
 Count of elements                        : 2716
 Stream size                              : 22.7 MiB (0%)
 Title                                    : English-PGS
 Language                                 : English
 Default                                  : Yes
 Forced                                   : No

 Text #2
 ID                                       : 11
 Format                                   : PGS
 Muxing mode                              : zlib
 Codec ID                                 : S_HDMV/PGS
 Codec ID/Info                            : Picture based subtitle format used on BDs/HD-DVDs
 Duration                                 : 2 h 42 min
 Bit rate                                 : 15.1 kb/s
 Count of elements                        : 2154
 Stream size                              : 17.5 MiB (0%)
 Title                                    : French-PGS
 Language                                 : French
 Default                                  : No
 Forced                                   : No

 Text #3
 ID                                       : 12
 Format                                   : PGS
 Muxing mode                              : zlib
 Codec ID                                 : S_HDMV/PGS
 Codec ID/Info                            : Picture based subtitle format used on BDs/HD-DVDs
 Duration                                 : 2 h 42 min
 Bit rate                                 : 15.6 kb/s
 Count of elements                        : 2094
 Stream size                              : 18.2 MiB (0%)
 Title                                    : Spanish-PGS
 Language                                 : Spanish
 Default                                  : No
 Forced                                   : No

 Text #4
 ID                                       : 13
 Format                                   : PGS
 Muxing mode                              : zlib
 Codec ID                                 : S_HDMV/PGS
 Codec ID/Info                            : Picture based subtitle format used on BDs/HD-DVDs
 Duration                                 : 2 h 17 min
 Bit rate                                 : 1 180 b/s
 Count of elements                        : 100
 Stream size                              : 1.16 MiB (0%)
 Title                                    : French-FORCED-PGS
 Language                                 : French
 Default                                  : No
 Forced                                   : No

 Text #5
 ID                                       : 14
 Format                                   : PGS
 Muxing mode                              : zlib
 Codec ID                                 : S_HDMV/PGS
 Codec ID/Info                            : Picture based subtitle format used on BDs/HD-DVDs
 Duration                                 : 2 h 42 min
 Bit rate                                 : 1 423 b/s
 Count of elements                        : 152
 Stream size                              : 1.66 MiB (0%)
 Title                                    : Spanish-FORCED-PGS
 Language                                 : Spanish
 Default                                  : No
 Forced                                   : No

 Menu
 00:00:00.000                             : en:Chapter 01
 00:12:50.269                             : en:Chapter 02
 00:23:43.380                             : en:Chapter 03
 00:37:14.857                             : en:Chapter 04
 00:43:04.248                             : en:Chapter 05
 00:49:38.600                             : en:Chapter 06
 00:58:49.609                             : en:Chapter 07
 01:04:24.485                             : en:Chapter 08
 01:16:01.014                             : en:Chapter 09
 01:25:26.412                             : en:Chapter 10
 01:36:29.158                             : en:Chapter 11
 01:51:08.953                             : en:Chapter 12
 02:01:50.761                             : en:Chapter 13
 02:08:54.476                             : en:Chapter 14
 02:16:56.583                             : en:Chapter 15
 02:28:00.913                             : en:Chapter 16


Image Image
Image Image

Image

LINKS:

Blade.Runner.2049.2017.1080p.BluRay.REMUX.AVC.DTS-HD.MA.TrueHD.7.1.Atmos-FGT.mkv  [40,94 Gb]
Blade.Runner.2049.2017.1080p.BluRay.REMUX.AVC.DTS-HD.MA.TrueHD.7.1.Atmos-FGT.nfo  [14,9 Kb]


Legendas: Image
Blade.Runner.2049.2017.1080p.BluRay.REMUX.AVC.DTS-HD.MA.TrueHD.7.1.Atmos-FGT.srt  [74,1 Kb]

Todos os horários são GMT - 4 Horas
Powered by phpBB © 2001 phpBB Group