PootzForce Evolution

Filmes Alta Definição / High Definition Movies - [1080p BluRay REMUX] Mark Felt: The Man Who Brought Down the White House (2017)

lost_rider34 - Sex Jan 12, 2018 9:55 pm
Assunto: [1080p BluRay REMUX] Mark Felt: The Man Who Brought Down the
Image


Citação:
Retrata a trajetória de vida de Mark Felt, vice-presidente do FBI que, de maneira secreta e usando o nome fictício de "Deep Throat", foi informante dos jornalistas Bob Woodward e Carl Bernstein, contribuindo assim para o desfecho do famoso escândalo de Watergate, responsável por conseguir a renúncia do então presidente Richard Nixon.

Mark Felt - The Man Who Brought Down the White House centers on "Deep Throat", the pseudonym given to the notorious whistleblower for one of the greatest scandals of all time, Watergate. The true identity of the secret informant remained a mystery and source of much public curiosity and speculation for more than 30 years. That is until, in 2005, special agent Mark Felt shockingly revealed himself as the tipster. This unbelievable true story chronicles the personal and professional life of the brilliant and uncompromising Felt, who risked and ultimately sacrificed everything - his family, his career, his freedom - in the name of justice.


[imdb]http://www.imdb.com/title/tt5175450/[/imdb]


Video
 ID                                       : 1
 Format                                   : AVC
 Format/Info                              : Advanced Video Codec
 Format profile                           : High@L4.1
 Format settings                          : CABAC / 2 Ref Frames
 Format settings, CABAC                   : Yes
 Format settings, ReFrames                : 2 frames
 Codec ID                                 : V_MPEG4/ISO/AVC
 Duration                                 : 1 h 42 min
 Bit rate mode                            : Variable
 Bit rate                                 : 24.9 Mb/s
 Width                                    : 1 920 pixels
 Height                                   : 1 080 pixels
 Display aspect ratio                     : 16:9
 Frame rate mode                          : Constant
 Frame rate                               : 23.976 (24000/1001) FPS
 Color space                              : YUV
 Chroma subsampling                       : 4:2:0
 Bit depth                                : 8 bits
 Scan type                                : Progressive
 Bits/(Pixel*Frame)                       : 0.501
 Stream size                              : 17.9 GiB (85%)
 Title                                    : Mark.Felt.The.Man.Who.Brought.Down.the.White.House.2017.1080p.BluRay.REMUX.AVC.DTS-HD.MA.5.1-FGT
 Language                                 : English
 Default                                  : No
 Forced                                   : No

 Audio #1
 ID                                       : 2
 Format                                   : DTS
 Format/Info                              : Digital Theater Systems
 Format profile                           : MA / Core
 Codec ID                                 : A_DTS
 Duration                                 : 1 h 42 min
 Bit rate mode                            : Variable / Constant
 Bit rate                                 : 2 120 kb/s / 1 509 kb/s
 Channel(s)                               : 6 channels
 Channel positions                        : Front: L C R, Side: L R, LFE
 Sampling rate                            : 48.0 kHz
 Frame rate                               : 93.750 FPS (512 SPF)
 Bit depth                                : 16 bits
 Compression mode                         : Lossless / Lossy
 Stream size                              : 1.52 GiB (7%)
 Title                                    : Mark.Felt.The.Man.Who.Brought.Down.the.White.House.2017.1080p.BluRay.REMUX.AVC.DTS-HD.MA.5.1-FGT
 Language                                 : English
 Default                                  : Yes
 Forced                                   : No

 Audio #2
 ID                                       : 3
 Format                                   : DTS
 Format/Info                              : Digital Theater Systems
 Codec ID                                 : A_DTS
 Duration                                 : 1 h 42 min
 Bit rate mode                            : Constant
 Bit rate                                 : 1 509 kb/s
 Channel(s)                               : 6 channels
 Channel positions                        : Front: L C R, Side: L R, LFE
 Sampling rate                            : 48.0 kHz
 Frame rate                               : 93.750 FPS (512 SPF)
 Bit depth                                : 16 bits
 Compression mode                         : Lossy
 Stream size                              : 1.09 GiB (5%)
 Title                                    : Mark.Felt.The.Man.Who.Brought.Down.the.White.House.2017.1080p.BluRay.REMUX.AVC.DTS-HD.MA.5.1-FGT
 Language                                 : English
 Default                                  : No
 Forced                                   : No

 Audio #3
 ID                                       : 4
 Format                                   : AC-3
 Format/Info                              : Audio Coding 3
 Codec ID                                 : A_AC3
 Duration                                 : 1 h 42 min
 Bit rate mode                            : Constant
 Bit rate                                 : 640 kb/s
 Channel(s)                               : 6 channels
 Channel positions                        : Front: L C R, Side: L R, LFE
 Sampling rate                            : 48.0 kHz
 Frame rate                               : 31.250 FPS (1536 SPF)
 Bit depth                                : 16 bits
 Compression mode                         : Lossy
 Stream size                              : 471 MiB (2%)
 Title                                    : Mark.Felt.The.Man.Who.Brought.Down.the.White.House.2017.1080p.BluRay.REMUX.AVC.DTS-HD.MA.5.1-FGT
 Language                                 : English
 Service kind                             : Complete Main
 Default                                  : No
 Forced                                   : No

 Audio #4
 ID                                       : 5
 Format                                   : AC-3
 Format/Info                              : Audio Coding 3
 Codec ID                                 : A_AC3
 Duration                                 : 1 h 42 min
 Bit rate mode                            : Constant
 Bit rate                                 : 192 kb/s
 Channel(s)                               : 2 channels
 Channel positions                        : Front: L R
 Sampling rate                            : 48.0 kHz
 Frame rate                               : 31.250 FPS (1536 SPF)
 Bit depth                                : 16 bits
 Compression mode                         : Lossy
 Stream size                              : 141 MiB (1%)
 Title                                    : Mark.Felt.The.Man.Who.Brought.Down.the.White.House.2017.1080p.BluRay.REMUX.AVC.DTS-HD.MA.5.1-FGT
 Language                                 : English
 Service kind                             : Complete Main
 Default                                  : No
 Forced                                   : No

 Text #1
 ID                                       : 6
 Format                                   : PGS
 Muxing mode                              : zlib
 Codec ID                                 : S_HDMV/PGS
 Codec ID/Info                            : Picture based subtitle format used on BDs/HD-DVDs
 Duration                                 : 1 h 37 min
 Bit rate                                 : 40.3 kb/s
 Count of elements                        : 2458
 Stream size                              : 28.0 MiB (0%)
 Title                                    : English-PGS
 Language                                 : English
 Default                                  : Yes
 Forced                                   : No

 Text #2
 ID                                       : 7
 Format                                   : PGS
 Muxing mode                              : zlib
 Codec ID                                 : S_HDMV/PGS
 Codec ID/Info                            : Picture based subtitle format used on BDs/HD-DVDs
 Duration                                 : 1 h 37 min
 Bit rate                                 : 38.1 kb/s
 Count of elements                        : 2362
 Stream size                              : 26.5 MiB (0%)
 Title                                    : English-SDH-PGS
 Language                                 : English
 Default                                  : No
 Forced                                   : No

 Text #3
 ID                                       : 8
 Format                                   : PGS
 Muxing mode                              : zlib
 Codec ID                                 : S_HDMV/PGS
 Codec ID/Info                            : Picture based subtitle format used on BDs/HD-DVDs
 Duration                                 : 1 h 41 min
 Bit rate                                 : 39.8 kb/s
 Count of elements                        : 2454
 Stream size                              : 28.9 MiB (0%)
 Title                                    : French-PGS
 Language                                 : French
 Default                                  : No
 Forced                                   : No

 Text #4
 ID                                       : 9
 Format                                   : PGS
 Muxing mode                              : zlib
 Codec ID                                 : S_HDMV/PGS
 Codec ID/Info                            : Picture based subtitle format used on BDs/HD-DVDs
 Duration                                 : 1 h 39 min
 Bit rate                                 : 81.4 kb/s
 Count of elements                        : 4418
 Stream size                              : 57.8 MiB (0%)
 Title                                    : English-FORCED-PGS
 Language                                 : English
 Default                                  : No
 Forced                                   : No

 Menu
 00:00:00.000                             : en:Chapter 01
 00:08:38.226                             : en:Chapter 02
 00:15:53.911                             : en:Chapter 03
 00:21:23.240                             : en:Chapter 04
 00:33:01.145                             : en:Chapter 05
 00:36:17.508                             : en:Chapter 06
 00:47:14.039                             : en:Chapter 07
 00:56:39.145                             : en:Chapter 08
 01:03:02.904                             : en:Chapter 09
 01:10:16.128                             : en:Chapter 10
 01:13:50.217                             : en:Chapter 11
 01:17:03.619                             : en:Chapter 12
 01:21:09.239                             : en:Chapter 13
 01:26:26.306                             : en:Chapter 14
 01:29:30.907                             : en:Chapter 15
 01:35:10.579                             : en:Chapter 16



Image Image
Image Image

Image

LinKS:

Mark.Felt.The.Man.Who.Brought.Down.the.White.House.2017.1080p.BluRay.REMUX.AVC.DTS-HD.MA.5.1-FGT.mkv  [21,16 Gb]
Mark.Felt.The.Man.Who.Brought.Down.the.White.House.2017.1080p.BluRay.REMUX.AVC.DTS-HD.MA.5.1-FGT.nfo  [9,8 Kb]

Legendas: Image
Mark.Felt.The.Man.Who.Brought.Down.the.White.House.2017.1080p.BluRay.REMUX.AVC.DTS-HD.MA.5.1-FGT.srt  [90,2 Kb]

Todos os horários são GMT - 4 Horas
Powered by phpBB © 2001 phpBB Group