PootzForce Evolution

Filmes Alta Definição / High Definition Movies - [BDRip 1080p REMUX] The Snowman (2017) *1080p BluRay* - FGT

lost_rider34 - Seg Jan 29, 2018 12:42 pm
Assunto: [BDRip 1080p REMUX] The Snowman (2017) *1080p BluRay* - FGT
Image

Citação:

Quando uma mulher desaparece, a única pista deixada para trás é um cachecol rosa encontrado envolta de um estranho boneco de neve. O detetive Harry Hole (Michael Fassbender) começa suas investigações e percebe que o crime parece obra de um serial killer.

When an elite crime squad's lead detective (Michael Fassbender) investigates the disappearance of a victim on the first snow of winter, he fears an elusive serial killer may be active again. With the help of a brilliant recruit (Rebecca Ferguson), the cop must connect decades-old cold cases to the brutal new one if he hopes to outwit this unthinkable evil before the next snowfall.


[imdb]http://www.imdb.com/title/tt1758810/[/imdb]


Video
 ID                                       : 1
 Format                                   : AVC
 Format/Info                              : Advanced Video Codec
 Format profile                           : High@L4.1
 Format settings                          : CABAC / 4 Ref Frames
 Format settings, CABAC                   : Yes
 Format settings, ReFrames                : 4 frames
 Format settings, GOP                     : M=3, N=12
 Codec ID                                 : V_MPEG4/ISO/AVC
 Duration                                 : 1 h 59 min
 Bit rate mode                            : Variable
 Bit rate                                 : 26.9 Mb/s
 Maximum bit rate                         : 30.0 Mb/s
 Width                                    : 1 920 pixels
 Height                                   : 1 080 pixels
 Display aspect ratio                     : 16:9
 Frame rate mode                          : Constant
 Frame rate                               : 23.976 (24000/1001) FPS
 Color space                              : YUV
 Chroma subsampling                       : 4:2:0
 Bit depth                                : 8 bits
 Scan type                                : Progressive
 Bits/(Pixel*Frame)                       : 0.542
 Stream size                              : 22.4 GiB (77%)
 Title                                    : The.Snowman.2017.1080p.BluRay.REMUX.AVC.DTS-HD.MA.5.1-FGT
 Language                                 : English
 Default                                  : No
 Forced                                   : No

 Audio #1
 ID                                       : 2
 Format                                   : DTS
 Format/Info                              : Digital Theater Systems
 Format profile                           : MA / Core
 Codec ID                                 : A_DTS
 Duration                                 : 1 h 59 min
 Bit rate mode                            : Variable / Constant
 Bit rate                                 : 4 976 kb/s / 1 509 kb/s
 Channel(s)                               : 8 channels / 6 channels
 Channel positions                        : Front: L C R, Side: L R, Back: L R, LFE / Front: L C R, Side: L R, LFE
 Sampling rate                            : 48.0 kHz
 Frame rate                               : 93.750 FPS (512 SPF)
 Bit depth                                : 24 bits
 Compression mode                         : Lossless / Lossy
 Stream size                              : 4.14 GiB (14%)
 Title                                    : The.Snowman.2017.1080p.BluRay.REMUX.AVC.DTS-HD.MA.5.1-FGT
 Language                                 : English
 Default                                  : Yes
 Forced                                   : No

 Audio #2
 ID                                       : 3
 Format                                   : DTS
 Format/Info                              : Digital Theater Systems
 Codec ID                                 : A_DTS
 Duration                                 : 1 h 59 min
 Bit rate mode                            : Constant
 Bit rate                                 : 1 509 kb/s
 Channel(s)                               : 6 channels
 Channel positions                        : Front: L C R, Side: L R, LFE
 Sampling rate                            : 48.0 kHz
 Frame rate                               : 93.750 FPS (512 SPF)
 Bit depth                                : 24 bits
 Compression mode                         : Lossy
 Stream size                              : 1.26 GiB (4%)
 Title                                    : The.Snowman.2017.1080p.BluRay.REMUX.AVC.DTS-HD.MA.5.1-FGT
 Language                                 : English
 Default                                  : No
 Forced                                   : No

 Audio #3
 ID                                       : 4
 Format                                   : DTS
 Format/Info                              : Digital Theater Systems
 Codec ID                                 : A_DTS
 Duration                                 : 1 h 59 min
 Bit rate mode                            : Constant
 Bit rate                                 : 768 kb/s
 Channel(s)                               : 6 channels
 Channel positions                        : Front: L C R, Side: L R, LFE
 Sampling rate                            : 48.0 kHz
 Frame rate                               : 93.750 FPS (512 SPF)
 Bit depth                                : 24 bits
 Compression mode                         : Lossy
 Stream size                              : 655 MiB (2%)
 Title                                    : The.Snowman.2017.1080p.BluRay.REMUX.AVC.DTS-HD.MA.5.1-FGT
 Language                                 : Spanish
 Default                                  : No
 Forced                                   : No

 Audio #4
 ID                                       : 5
 Format                                   : DTS
 Format/Info                              : Digital Theater Systems
 Codec ID                                 : A_DTS
 Duration                                 : 1 h 59 min
 Bit rate mode                            : Constant
 Bit rate                                 : 768 kb/s
 Channel(s)                               : 6 channels
 Channel positions                        : Front: L C R, Side: L R, LFE
 Sampling rate                            : 48.0 kHz
 Frame rate                               : 93.750 FPS (512 SPF)
 Bit depth                                : 24 bits
 Compression mode                         : Lossy
 Stream size                              : 655 MiB (2%)
 Title                                    : The.Snowman.2017.1080p.BluRay.REMUX.AVC.DTS-HD.MA.5.1-FGT
 Language                                 : French
 Default                                  : No
 Forced                                   : No

 Audio #5
 ID                                       : 6
 Format                                   : AC-3
 Format/Info                              : Audio Coding 3
 Codec ID                                 : A_AC3
 Duration                                 : 1 h 59 min
 Bit rate mode                            : Constant
 Bit rate                                 : 192 kb/s
 Channel(s)                               : 2 channels
 Channel positions                        : Front: L R
 Sampling rate                            : 48.0 kHz
 Frame rate                               : 31.250 FPS (1536 SPF)
 Bit depth                                : 16 bits
 Compression mode                         : Lossy
 Stream size                              : 164 MiB (1%)
 Title                                    : The.Snowman.2017.1080p.BluRay.REMUX.AVC.DTS-HD.MA.5.1-FGT
 Language                                 : English
 Service kind                             : Complete Main
 Default                                  : No
 Forced                                   : No

 Text #1
 ID                                       : 7
 Format                                   : PGS
 Muxing mode                              : zlib
 Codec ID                                 : S_HDMV/PGS
 Codec ID/Info                            : Picture based subtitle format used on BDs/HD-DVDs
 Duration                                 : 1 h 53 min
 Bit rate                                 : 29.1 kb/s
 Count of elements                        : 2396
 Stream size                              : 23.6 MiB (0%)
 Title                                    : English-PGS
 Language                                 : English
 Default                                  : Yes
 Forced                                   : No

 Text #2
 ID                                       : 8
 Format                                   : PGS
 Muxing mode                              : zlib
 Codec ID                                 : S_HDMV/PGS
 Codec ID/Info                            : Picture based subtitle format used on BDs/HD-DVDs
 Duration                                 : 1 h 58 min
 Bit rate                                 : 23.0 kb/s
 Count of elements                        : 2145
 Stream size                              : 19.5 MiB (0%)
 Title                                    : Spanish-PGS
 Language                                 : Spanish
 Default                                  : No
 Forced                                   : No

 Text #3
 ID                                       : 9
 Format                                   : PGS
 Muxing mode                              : zlib
 Codec ID                                 : S_HDMV/PGS
 Codec ID/Info                            : Picture based subtitle format used on BDs/HD-DVDs
 Duration                                 : 1 h 58 min
 Bit rate                                 : 24.5 kb/s
 Count of elements                        : 2038
 Stream size                              : 20.7 MiB (0%)
 Title                                    : French-PGS
 Language                                 : French
 Default                                  : No
 Forced                                   : No

 Text #4
 ID                                       : 10
 Format                                   : PGS
 Muxing mode                              : zlib
 Codec ID                                 : S_HDMV/PGS
 Codec ID/Info                            : Picture based subtitle format used on BDs/HD-DVDs
 Duration                                 : 1 h 48 min
 Bit rate                                 : 1 625 b/s
 Count of elements                        : 110
 Stream size                              : 1.27 MiB (0%)
 Title                                    : Spanish-FORCED-PGS
 Language                                 : Spanish
 Default                                  : No
 Forced                                   : No

 Text #5
 ID                                       : 11
 Format                                   : PGS
 Muxing mode                              : zlib
 Codec ID                                 : S_HDMV/PGS
 Codec ID/Info                            : Picture based subtitle format used on BDs/HD-DVDs
 Duration                                 : 1 h 48 min
 Bit rate                                 : 1 062 b/s
 Count of elements                        : 80
 Stream size                              : 847 KiB (0%)
 Title                                    : French-FORCED-PGS
 Language                                 : French
 Default                                  : No
 Forced                                   : No

 Menu
 00:00:00.000                             : en:Chapter 01
 00:06:23.007                             : en:Chapter 02
 00:13:43.072                             : en:Chapter 03
 00:20:05.662                             : en:Chapter 04
 00:24:21.376                             : en:Chapter 05
 00:29:25.263                             : en:Chapter 06
 00:33:09.320                             : en:Chapter 07
 00:42:17.284                             : en:Chapter 08
 00:50:44.124                             : en:Chapter 09
 00:55:33.747                             : en:Chapter 10
 01:02:19.902                             : en:Chapter 11
 01:08:06.457                             : en:Chapter 12
 01:12:24.214                             : en:Chapter 13
 01:17:31.396                             : en:Chapter 14
 01:23:55.488                             : en:Chapter 15
 01:29:06.883                             : en:Chapter 16
 01:35:45.322                             : en:Chapter 17
 01:42:39.027                             : en:Chapter 18
 01:50:33.752                             : en:Chapter 19
 01:54:23.982                             : en:Chapter 20


Image Image
Image Image

Image

LINKS:

The.Snowman.2017.1080p.BluRay.REMUX.AVC.DTS-HD.MA.5.1-FGT.mkv  [29,30 Gb]
The.Snowman.2017.1080p.BluRay.REMUX.AVC.DTS-HD.MA.5.1-FGT.nfo  [11,7 Kb]

Legendas: Image
The.Snowman.2017.1080p.BluRay.REMUX.AVC.DTS-HD.MA.5.1-FGT.srt  [71,4 Kb]

Todos os horários são GMT - 4 Horas
Powered by phpBB © 2001 phpBB Group