PootzForce Evolution

Filmes Alta Definição / High Definition Movies - [BDRip 1080p REMUX] Bullet Head (2017) *FGT*

lost_rider34 - Seg Fev 05, 2018 11:00 am
Assunto: [BDRip 1080p REMUX] Bullet Head (2017) *FGT*
Image

Citação:
Quando um assalto dá tragicamente errado, três criminosos de carreira se veem presos num armazém, com a lei se aproximando. Mas, dentro do armazém, uma ameaça maior os espera - um cão de ataque vicioso que fará com que os fugitivos lutem por suas vidas.

Oscar (R) winner Adrien Brody, John Malkovich, and Antonio Banderas deliver the action in this riveting crime story filled with pulse-pounding twists and turns. After a heist gone tragically wrong, three career criminals find themselves trapped in a warehouse with the law closing in. But, inside the warehouse, a more dangerous threat awaits-as the fugitives are plunged into a furious battle for their lives.


[imdb]http://www.imdb.com/title/tt6204340/[/imdb]


Video
 ID                                       : 1
 Format                                   : AVC
 Format/Info                              : Advanced Video Codec
 Format profile                           : High@L4.1
 Format settings                          : CABAC / 4 Ref Frames
 Format settings, CABAC                   : Yes
 Format settings, ReFrames                : 4 frames
 Codec ID                                 : V_MPEG4/ISO/AVC
 Duration                                 : 1 h 34 min
 Bit rate mode                            : Variable
 Bit rate                                 : 29.7 Mb/s
 Maximum bit rate                         : 35.0 Mb/s
 Width                                    : 1 920 pixels
 Height                                   : 1 080 pixels
 Display aspect ratio                     : 16:9
 Frame rate mode                          : Constant
 Frame rate                               : 23.976 (24000/1001) FPS
 Color space                              : YUV
 Chroma subsampling                       : 4:2:0
 Bit depth                                : 8 bits
 Scan type                                : Progressive
 Bits/(Pixel*Frame)                       : 0.598
 Stream size                              : 19.6 GiB (84%)
 Title                                    : Bullet.Head.2017.1080p.BluRay.REMUX.AVC.DTS-HD.MA.5.1-FGT
 Language                                 : English
 Default                                  : No
 Forced                                   : No

 Audio #1
 ID                                       : 2
 Format                                   : DTS
 Format/Info                              : Digital Theater Systems
 Format profile                           : MA / Core
 Codec ID                                 : A_DTS
 Duration                                 : 1 h 34 min
 Bit rate mode                            : Variable / Constant
 Bit rate                                 : 3 840 kb/s / 1 509 kb/s
 Channel(s)                               : 6 channels
 Channel positions                        : Front: L C R, Side: L R, LFE
 Sampling rate                            : 48.0 kHz
 Frame rate                               : 93.750 FPS (512 SPF)
 Bit depth                                : 24 bits
 Compression mode                         : Lossless / Lossy
 Stream size                              : 2.55 GiB (11%)
 Title                                    : Bullet.Head.2017.1080p.BluRay.REMUX.AVC.DTS-HD.MA.5.1-FGT
 Language                                 : English
 Default                                  : Yes
 Forced                                   : No

 Audio #2
 ID                                       : 3
 Format                                   : DTS
 Format/Info                              : Digital Theater Systems
 Codec ID                                 : A_DTS
 Duration                                 : 1 h 34 min
 Bit rate mode                            : Constant
 Bit rate                                 : 1 509 kb/s
 Channel(s)                               : 6 channels
 Channel positions                        : Front: L C R, Side: L R, LFE
 Sampling rate                            : 48.0 kHz
 Frame rate                               : 93.750 FPS (512 SPF)
 Bit depth                                : 24 bits
 Compression mode                         : Lossy
 Stream size                              : 1 018 MiB (4%)
 Title                                    : Bullet.Head.2017.1080p.BluRay.REMUX.AVC.DTS-HD.MA.5.1-FGT
 Language                                 : English
 Default                                  : No
 Forced                                   : No

 Audio #3
 ID                                       : 4
 Format                                   : AC-3
 Format/Info                              : Audio Coding 3
 Codec ID                                 : A_AC3
 Duration                                 : 1 h 34 min
 Bit rate mode                            : Constant
 Bit rate                                 : 192 kb/s
 Channel(s)                               : 2 channels
 Channel positions                        : Front: L R
 Sampling rate                            : 48.0 kHz
 Frame rate                               : 31.250 FPS (1536 SPF)
 Bit depth                                : 16 bits
 Compression mode                         : Lossy
 Stream size                              : 129 MiB (1%)
 Title                                    : Bullet.Head.2017.1080p.BluRay.REMUX.AVC.DTS-HD.MA.5.1-FGT
 Language                                 : English
 Service kind                             : Complete Main
 Default                                  : No
 Forced                                   : No

 Text #1
 ID                                       : 5
 Format                                   : PGS
 Muxing mode                              : zlib
 Codec ID                                 : S_HDMV/PGS
 Codec ID/Info                            : Picture based subtitle format used on BDs/HD-DVDs
 Duration                                 : 1 h 33 min
 Bit rate                                 : 26.1 kb/s
 Count of elements                        : 2168
 Stream size                              : 17.5 MiB (0%)
 Title                                    : English-PGS
 Language                                 : English
 Default                                  : Yes
 Forced                                   : No

 Text #2
 ID                                       : 6
 Format                                   : PGS
 Muxing mode                              : zlib
 Codec ID                                 : S_HDMV/PGS
 Codec ID/Info                            : Picture based subtitle format used on BDs/HD-DVDs
 Duration                                 : 1 h 32 min
 Bit rate                                 : 20.4 kb/s
 Count of elements                        : 1606
 Stream size                              : 13.5 MiB (0%)
 Title                                    : Spanish-PGS
 Language                                 : Spanish
 Default                                  : No
 Forced                                   : No

 Menu
 00:00:00.000                             : en:Chapter 01
 00:03:33.129                             : en:Chapter 02
 00:08:37.683                             : en:Chapter 03
 00:13:22.927                             : en:Chapter 04
 00:22:26.136                             : en:Chapter 05
 00:29:18.548                             : en:Chapter 06
 00:35:30.670                             : en:Chapter 07
 00:41:42.041                             : en:Chapter 08
 00:49:39.726                             : en:Chapter 09
 00:52:54.462                             : en:Chapter 10
 00:57:24.566                             : en:Chapter 11
 01:01:10.333                             : en:Chapter 12
 01:08:27.311                             : en:Chapter 13
 01:14:11.280                             : en:Chapter 14
 01:22:48.797                             : en:Chapter 15
 01:27:07.889                             : en:Chapter 16


Image Image
Image Image

Image

LINKS:

Bullet.Head.2017.1080p.BluRay.REMUX.AVC.DTS-HD.MA.5.1-FGT.mkv  [23,27 Gb]

Legendas: Image
Bullet.Head.2017.1080p.BluRay.REMUX.AVC.DTS-HD.MA.5.1-FGT.srt  [52,2 Kb]

Todos os horários são GMT - 4 Horas
Powered by phpBB © 2001 phpBB Group