PootzForce Evolution

Filmes Alta Definição / High Definition Movies - [BDRip 1080p] Brawl in Cell Block 99 (2017) *FGT*

lost_rider34 - Seg Fev 05, 2018 11:10 am
Assunto: [BDRip 1080p] Brawl in Cell Block 99 (2017) *FGT*
Image

Citação:
Bradley Thomas é um ex-boxeador que perde o emprego como mecânico e resolve trabalhar, contra a vontade, como entregador de drogas, unicamente para dar uma vida melhor à esposa que está grávida do seu primeiro filho. Depois de uma entrega de rotina sair terrivelmente errado, Bradley é preso e mergulha num inferno de extrema violência.

A former boxer named Bradley loses his job as an auto mechanic, and his troubled marriage is about to expire. At this crossroads in his life, he feels that he has no better option than to work for an old buddy as a drug courier. This improves his situation until the terrible day that he finds himself in a gunfight between a group of police officers and his own ruthless allies. When the smoke clears, Bradley is badly hurt and thrown in prison, where his enemies force him to commit acts of violence that turn the place into a savage battleground. From the director of Bone Tomahawk, Brawl in Cell Block 99 stars Vince Vaughn (Hacksaw Ridge), Jennifer Carpenter ("Dexter"), Udo Kier (Blade) and Don Johnson ("Miami Vice").


[imdb]http://www.imdb.com/title/tt5657856/[/imdb]


Video
 ID                                       : 1
 Format                                   : AVC
 Format/Info                              : Advanced Video Codec
 Format profile                           : High@L4.1
 Format settings                          : CABAC / 4 Ref Frames
 Format settings, CABAC                   : Yes
 Format settings, ReFrames                : 4 frames
 Codec ID                                 : V_MPEG4/ISO/AVC
 Duration                                 : 2 h 12 min
 Bit rate                                 : 9 617 kb/s
 Nominal bit rate                         : 10.1 Mb/s
 Width                                    : 1 920 pixels
 Height                                   : 1 040 pixels
 Display aspect ratio                     : 1.85:1
 Frame rate mode                          : Constant
 Frame rate                               : 23.976 (24000/1001) FPS
 Color space                              : YUV
 Chroma subsampling                       : 4:2:0
 Bit depth                                : 8 bits
 Scan type                                : Progressive
 Bits/(Pixel*Frame)                       : 0.201
 Stream size                              : 8.89 GiB (86%)
 Title                                    : Brawl.in.Cell.Block.99.2017.1080p.BluRay.x264.DTS-FGT
 Writing library                          : x264 core 130 r2273 b3065e6
 Encoding settings                        : cabac=1 / ref=1 / deblock=1:0:0 / analyse=0x3:0x113 / me=hex / subme=2 / psy=1 / psy_rd=1.00:0.00 / mixed_ref=0 / me_range=16 / chroma_me=1 / trellis=0 / 8x8dct=1 / cqm=0 / deadzone=21,11 / fast_pskip=1 / chroma_qp_offset=0 / threads=6 / lookahead_threads=2 / sliced_threads=0 / nr=0 / decimate=1 / interlaced=0 / bluray_compat=0 / constrained_intra=0 / bframes=3 / b_pyramid=2 / b_adapt=1 / b_bias=0 / direct=1 / weightb=1 / open_gop=0 / weightp=1 / keyint=240 / keyint_min=24 / scenecut=40 / intra_refresh=0 / rc_lookahead=10 / rc=abr / mbtree=1 / bitrate=10102 / ratetol=1.0 / qcomp=0.60 / qpmin=0 / qpmax=69 / qpstep=4 / vbv_maxrate=62500 / vbv_bufsize=78125 / nal_hrd=none / ip_ratio=1.40 / aq=1:1.00
 Language                                 : English
 Default                                  : Yes
 Forced                                   : No
 Color range                              : Limited
 Color primaries                          : BT.709
 Transfer characteristics                 : BT.709
 Matrix coefficients                      : BT.709

 Audio
 ID                                       : 2
 Format                                   : DTS
 Format/Info                              : Digital Theater Systems
 Codec ID                                 : A_DTS
 Duration                                 : 2 h 12 min
 Bit rate mode                            : Constant
 Bit rate                                 : 1 509 kb/s
 Channel(s)                               : 6 channels
 Channel positions                        : Front: L C R, Side: L R, LFE
 Sampling rate                            : 48.0 kHz
 Frame rate                               : 93.750 FPS (512 SPF)
 Bit depth                                : 24 bits
 Compression mode                         : Lossy
 Stream size                              : 1.40 GiB (14%)
 Title                                    : Brawl.in.Cell.Block.99.2017.1080p.BluRay.x264.DTS-FGT
 Language                                 : English
 Default                                  : Yes
 Forced                                   : No

 Menu
 00:00:00.000                             : en:Chapter 1
 00:13:43.906                             : en:Chapter 2
 00:27:24.684                             : en:Chapter 3
 00:44:54.608                             : en:Chapter 4
 01:01:18.383                             : en:Chapter 5
 01:10:07.244                             : en:Chapter 6
 01:20:00.587                             : en:Chapter 7
 01:28:07.282                             : en:Chapter 8
 01:58:05.244                             : en:Chapter 9
 02:04:53.944                             : en:Chapter 10


Image Image
Image Image

Image

LINKS:

Brawl.in.Cell.Block.99.2017.1080p.BluRay.x264.DTS-FGT.mkv  [10,29 Gb]

Legendas: Image
Brawl.in.Cell.Block.99.2017.1080p.BluRay.x264.DTS-FGT.srt  [78,2 Kb]

Todos os horários são GMT - 4 Horas
Powered by phpBB © 2001 phpBB Group