PootzForce Evolution

Filmes Alta Definição / High Definition Movies - [1080p BluRay REMUX] Geostorm (2017) *FGT*

lost_rider34 - Seg Fev 05, 2018 10:13 am
Assunto: [1080p BluRay REMUX] Geostorm (2017) *FGT*
Image

Citação:
A trama conta a história de um engenheiro de satélites (Butler) que precisa unir-se ao seu irmão (Jim Sturgess) para salvar o mundo de uma tempestade de proporções épicas. Ao mesmo tempo, o irmão do protagonista descobre uma conspiração para assassinar o presidente dos EUA (Andy Garcia).

A satellite designer (Gerard Butler) must race to avert a catastrpohe when the planet's climate control satellites begin to malfunction in this sci-fi action adventure from Warner Bros. and writer/producer/director Dean Devlin (making his feature directorial debut here).


[imdb]http://www.imdb.com/title/tt1981128/[/imdb]


Video
 ID                                       : 1
 Format                                   : AVC
 Format/Info                              : Advanced Video Codec
 Format profile                           : High@L4.1
 Format settings                          : CABAC / 4 Ref Frames
 Format settings, CABAC                   : Yes
 Format settings, ReFrames                : 4 frames
 Codec ID                                 : V_MPEG4/ISO/AVC
 Duration                                 : 1 h 49 min
 Bit rate mode                            : Variable
 Bit rate                                 : 29.7 Mb/s
 Maximum bit rate                         : 33.0 Mb/s
 Width                                    : 1 920 pixels
 Height                                   : 1 080 pixels
 Display aspect ratio                     : 16:9
 Frame rate mode                          : Constant
 Frame rate                               : 23.976 (24000/1001) FPS
 Color space                              : YUV
 Chroma subsampling                       : 4:2:0
 Bit depth                                : 8 bits
 Scan type                                : Progressive
 Bits/(Pixel*Frame)                       : 0.598
 Stream size                              : 22.6 GiB (84%)
 Title                                    : Geostorm.2017.1080p.BluRay.REMUX.AVC.DTS-HD.MA.5.1-FGT
 Default                                  : Yes
 Forced                                   : No

 Audio #1
 ID                                       : 2
 Format                                   : DTS
 Format/Info                              : Digital Theater Systems
 Format profile                           : MA / Core
 Codec ID                                 : A_DTS
 Duration                                 : 1 h 49 min
 Bit rate mode                            : Variable / Constant
 Bit rate                                 : 3 928 kb/s / 1 509 kb/s
 Channel(s)                               : 6 channels
 Channel positions                        : Front: L C R, Side: L R, LFE
 Sampling rate                            : 48.0 kHz
 Frame rate                               : 93.750 FPS (512 SPF)
 Bit depth                                : 24 bits
 Compression mode                         : Lossless / Lossy
 Stream size                              : 2.99 GiB (11%)
 Title                                    : Geostorm.2017.1080p.BluRay.REMUX.AVC.DTS-HD.MA.5.1-FGT
 Language                                 : English
 Default                                  : Yes
 Forced                                   : No

 Audio #2
 ID                                       : 3
 Format                                   : AC-3
 Format/Info                              : Audio Coding 3
 Codec ID                                 : A_AC3
 Duration                                 : 1 h 49 min
 Bit rate mode                            : Constant
 Bit rate                                 : 448 kb/s
 Channel(s)                               : 6 channels
 Channel positions                        : Front: L C R, Side: L R, LFE
 Sampling rate                            : 48.0 kHz
 Frame rate                               : 31.250 FPS (1536 SPF)
 Bit depth                                : 16 bits
 Compression mode                         : Lossy
 Stream size                              : 350 MiB (1%)
 Title                                    : Geostorm.2017.1080p.BluRay.REMUX.AVC.DTS-HD.MA.5.1-FGT
 Language                                 : English
 Service kind                             : Complete Main
 Default                                  : No
 Forced                                   : No

 Audio #3
 ID                                       : 4
 Format                                   : AC-3
 Format/Info                              : Audio Coding 3
 Codec ID                                 : A_AC3
 Duration                                 : 1 h 49 min
 Bit rate mode                            : Constant
 Bit rate                                 : 448 kb/s
 Channel(s)                               : 6 channels
 Channel positions                        : Front: L C R, Side: L R, LFE
 Sampling rate                            : 48.0 kHz
 Frame rate                               : 31.250 FPS (1536 SPF)
 Bit depth                                : 16 bits
 Compression mode                         : Lossy
 Stream size                              : 350 MiB (1%)
 Title                                    : Geostorm.2017.1080p.BluRay.REMUX.AVC.DTS-HD.MA.5.1-FGT
 Language                                 : French
 Service kind                             : Complete Main
 Default                                  : No
 Forced                                   : No

 Audio #4
 ID                                       : 5
 Format                                   : AC-3
 Format/Info                              : Audio Coding 3
 Codec ID                                 : A_AC3
 Duration                                 : 1 h 49 min
 Bit rate mode                            : Constant
 Bit rate                                 : 448 kb/s
 Channel(s)                               : 6 channels
 Channel positions                        : Front: L C R, Side: L R, LFE
 Sampling rate                            : 48.0 kHz
 Frame rate                               : 31.250 FPS (1536 SPF)
 Bit depth                                : 16 bits
 Compression mode                         : Lossy
 Stream size                              : 350 MiB (1%)
 Title                                    : Geostorm.2017.1080p.BluRay.REMUX.AVC.DTS-HD.MA.5.1-FGT
 Language                                 : Spanish
 Service kind                             : Complete Main
 Default                                  : No
 Forced                                   : No

 Audio #5
 ID                                       : 6
 Format                                   : AC-3
 Format/Info                              : Audio Coding 3
 Codec ID                                 : A_AC3
 Duration                                 : 1 h 49 min
 Bit rate mode                            : Constant
 Bit rate                                 : 448 kb/s
 Channel(s)                               : 6 channels
 Channel positions                        : Front: L C R, Side: L R, LFE
 Sampling rate                            : 48.0 kHz
 Frame rate                               : 31.250 FPS (1536 SPF)
 Bit depth                                : 16 bits
 Compression mode                         : Lossy
 Stream size                              : 350 MiB (1%)
 Title                                    : Geostorm.2017.1080p.BluRay.REMUX.AVC.DTS-HD.MA.5.1-FGT
 Language                                 : Portuguese
 Service kind                             : Complete Main
 Default                                  : No
 Forced                                   : No

 Text #1
 ID                                       : 7
 Format                                   : PGS
 Muxing mode                              : zlib
 Codec ID                                 : S_HDMV/PGS
 Codec ID/Info                            : Picture based subtitle format used on BDs/HD-DVDs
 Duration                                 : 1 h 48 min
 Bit rate                                 : 43.2 kb/s
 Count of elements                        : 3248
 Stream size                              : 33.4 MiB (0%)
 Title                                    : English-PGS
 Language                                 : English
 Default                                  : Yes
 Forced                                   : No

 Text #2
 ID                                       : 8
 Format                                   : PGS
 Muxing mode                              : zlib
 Codec ID                                 : S_HDMV/PGS
 Codec ID/Info                            : Picture based subtitle format used on BDs/HD-DVDs
 Duration                                 : 1 h 48 min
 Bit rate                                 : 30.3 kb/s
 Count of elements                        : 2806
 Stream size                              : 23.5 MiB (0%)
 Title                                    : French-PGS
 Language                                 : French
 Default                                  : No
 Forced                                   : No

 Text #3
 ID                                       : 9
 Format                                   : PGS
 Muxing mode                              : zlib
 Codec ID                                 : S_HDMV/PGS
 Codec ID/Info                            : Picture based subtitle format used on BDs/HD-DVDs
 Duration                                 : 1 h 42 min
 Bit rate                                 : 40.9 kb/s
 Count of elements                        : 3026
 Stream size                              : 30.1 MiB (0%)
 Title                                    : Spanish-PGS
 Language                                 : Spanish
 Default                                  : No
 Forced                                   : No

 Text #4
 ID                                       : 10
 Format                                   : PGS
 Muxing mode                              : zlib
 Codec ID                                 : S_HDMV/PGS
 Codec ID/Info                            : Picture based subtitle format used on BDs/HD-DVDs
 Duration                                 : 1 h 48 min
 Bit rate                                 : 38.4 kb/s
 Count of elements                        : 2996
 Stream size                              : 29.7 MiB (0%)
 Title                                    : Portuguese-PGS
 Language                                 : Portuguese
 Default                                  : No
 Forced                                   : No

 Text #5
 ID                                       : 11
 Format                                   : PGS
 Muxing mode                              : zlib
 Codec ID                                 : S_HDMV/PGS
 Codec ID/Info                            : Picture based subtitle format used on BDs/HD-DVDs
 Duration                                 : 1 h 38 min
 Bit rate                                 : 312 b/s
 Count of elements                        : 28
 Stream size                              : 226 KiB (0%)
 Title                                    : French-FORCED-PGS
 Language                                 : French
 Default                                  : No
 Forced                                   : No

 Text #6
 ID                                       : 12
 Format                                   : PGS
 Muxing mode                              : zlib
 Codec ID                                 : S_HDMV/PGS
 Codec ID/Info                            : Picture based subtitle format used on BDs/HD-DVDs
 Duration                                 : 1 h 21 min
 Bit rate                                 : 1 294 b/s
 Count of elements                        : 66
 Stream size                              : 777 KiB (0%)
 Title                                    : Spanish-FORCED-PGS
 Language                                 : Spanish
 Default                                  : No
 Forced                                   : No

 Text #7
 ID                                       : 13
 Format                                   : PGS
 Muxing mode                              : zlib
 Codec ID                                 : S_HDMV/PGS
 Codec ID/Info                            : Picture based subtitle format used on BDs/HD-DVDs
 Duration                                 : 1 h 46 min
 Bit rate                                 : 1 033 b/s
 Count of elements                        : 68
 Stream size                              : 803 KiB (0%)
 Title                                    : Portuguese-FORCED-PGS
 Language                                 : Portuguese
 Default                                  : No
 Forced                                   : No

 Menu
 00:00:00.000                             : en:Chapter 1
 00:08:33.971                             : en:Chapter 2
 00:16:52.052                             : en:Chapter 3
 00:27:20.555                             : en:Chapter 4
 00:39:13.184                             : en:Chapter 5
 00:48:47.925                             : en:Chapter 6
 01:00:24.746                             : en:Chapter 7
 01:11:01.090                             : en:Chapter 8
 01:19:14.958                             : en:Chapter 9
 01:30:08.569                             : en:Chapter 10
 01:40:25.728                             : en:Chapter 11


Image Image
Image Image

Image

LINKS:


Geostorm.2017.1080p.BluRay.REMUX.AVC.DTS-HD.MA.5.1-FGT.mkv  [27,05 Gb]
Geostorm.2017.1080p.BluRay.REMUX.AVC.DTS-HD.MA.5.1-FGT.nfo  [12,6 Kb]

Legendas: Image
Geostorm.2017.1080p.BluRay.REMUX.AVC.DTS-HD.MA.5.1-FGT.srt  [100,1 Kb]

Todos os horários são GMT - 4 Horas
Powered by phpBB © 2001 phpBB Group