PootzForce Evolution

Filmes Alta Definição / High Definition Movies - [BDRip 1080p REMUX] Suburbicon (2017) *FGT*

lost_rider34 - Qui Fev 08, 2018 3:38 pm
Assunto: [BDRip 1080p REMUX] Suburbicon (2017) *FGT*
Image

Citação:
O mistério de um crime envolvendo uma família durante a década de 50, onde o melhor e o pior da humanidade é refletido através dos atos de pessoas aparentemente comuns. Quando uma invasão de domicílio se torna mortal, uma família de imagem perfeita se submete à chantagem, vingança e traição.

Suburbicon is a peaceful, idyllic suburban community with affordable homes and manicured lawns... the perfect place to raise a family, and in the summer of 1959, the Lodge family is doing just that. But the tranquil surface masks a disturbing reality, as husband and father Gardner Lodge (Matt Damon) must navigate the town's dark underbelly of betrayal, deceit, and violence. This is a tale of very flawed people making very bad choices. This is Suburbicon.


[imdb]http://www.imdb.com/title/tt0491175/[/imdb]


Video
 ID                                       : 1
 Format                                   : AVC
 Format/Info                              : Advanced Video Codec
 Format profile                           : High@L4.1
 Format settings                          : CABAC / 4 Ref Frames
 Format settings, CABAC                   : Yes
 Format settings, ReFrames                : 4 frames
 Codec ID                                 : V_MPEG4/ISO/AVC
 Duration                                 : 1 h 45 min
 Bit rate mode                            : Variable
 Bit rate                                 : 31.6 Mb/s
 Maximum bit rate                         : 35.0 Mb/s
 Width                                    : 1 920 pixels
 Height                                   : 1 080 pixels
 Display aspect ratio                     : 16:9
 Frame rate mode                          : Constant
 Frame rate                               : 23.976 (24000/1001) FPS
 Color space                              : YUV
 Chroma subsampling                       : 4:2:0
 Bit depth                                : 8 bits
 Scan type                                : Progressive
 Bits/(Pixel*Frame)                       : 0.636
 Stream size                              : 23.2 GiB (83%)
 Title                                    : Suburbicon.2017.1080p.BluRay.REMUX.AVC.DTS-HD.MA.5.1-FGT
 Language                                 : English
 Default                                  : No
 Forced                                   : No

 Audio #1
 ID                                       : 2
 Format                                   : DTS
 Format/Info                              : Digital Theater Systems
 Format profile                           : MA / Core
 Codec ID                                 : A_DTS
 Duration                                 : 1 h 45 min
 Bit rate mode                            : Variable / Constant
 Bit rate                                 : 3 560 kb/s / 1 509 kb/s
 Channel(s)                               : 6 channels
 Channel positions                        : Front: L C R, Side: L R, LFE
 Sampling rate                            : 48.0 kHz
 Frame rate                               : 93.750 FPS (512 SPF)
 Bit depth                                : 24 bits
 Compression mode                         : Lossless / Lossy
 Stream size                              : 2.61 GiB (9%)
 Title                                    : Suburbicon.2017.1080p.BluRay.REMUX.AVC.DTS-HD.MA.5.1-FGT
 Language                                 : English
 Default                                  : Yes
 Forced                                   : No

 Audio #2
 ID                                       : 3
 Format                                   : DTS
 Format/Info                              : Digital Theater Systems
 Codec ID                                 : A_DTS
 Duration                                 : 1 h 45 min
 Bit rate mode                            : Constant
 Bit rate                                 : 1 509 kb/s
 Channel(s)                               : 6 channels
 Channel positions                        : Front: L C R, Side: L R, LFE
 Sampling rate                            : 48.0 kHz
 Frame rate                               : 93.750 FPS (512 SPF)
 Bit depth                                : 24 bits
 Compression mode                         : Lossy
 Stream size                              : 1.11 GiB (4%)
 Title                                    : Suburbicon.2017.1080p.BluRay.REMUX.AVC.DTS-HD.MA.5.1-FGT
 Language                                 : English
 Default                                  : No
 Forced                                   : No

 Audio #3
 ID                                       : 4
 Format                                   : AC-3
 Format/Info                              : Audio Coding 3
 Codec ID                                 : A_AC3
 Duration                                 : 1 h 45 min
 Bit rate mode                            : Constant
 Bit rate                                 : 640 kb/s
 Channel(s)                               : 6 channels
 Channel positions                        : Front: L C R, Side: L R, LFE
 Sampling rate                            : 48.0 kHz
 Frame rate                               : 31.250 FPS (1536 SPF)
 Bit depth                                : 16 bits
 Compression mode                         : Lossy
 Stream size                              : 481 MiB (2%)
 Title                                    : Suburbicon.2017.1080p.BluRay.REMUX.AVC.DTS-HD.MA.5.1-FGT
 Language                                 : Spanish
 Service kind                             : Complete Main
 Default                                  : No
 Forced                                   : No

 Audio #4
 ID                                       : 5
 Format                                   : AC-3
 Format/Info                              : Audio Coding 3
 Codec ID                                 : A_AC3
 Duration                                 : 1 h 45 min
 Bit rate mode                            : Constant
 Bit rate                                 : 640 kb/s
 Channel(s)                               : 6 channels
 Channel positions                        : Front: L C R, Side: L R, LFE
 Sampling rate                            : 48.0 kHz
 Frame rate                               : 31.250 FPS (1536 SPF)
 Bit depth                                : 16 bits
 Compression mode                         : Lossy
 Stream size                              : 481 MiB (2%)
 Title                                    : Suburbicon.2017.1080p.BluRay.REMUX.AVC.DTS-HD.MA.5.1-FGT
 Language                                 : English
 Service kind                             : Complete Main
 Default                                  : No
 Forced                                   : No

 Audio #5
 ID                                       : 6
 Format                                   : AC-3
 Format/Info                              : Audio Coding 3
 Codec ID                                 : A_AC3
 Duration                                 : 1 h 45 min
 Bit rate mode                            : Constant
 Bit rate                                 : 224 kb/s
 Channel(s)                               : 2 channels
 Channel positions                        : Front: L R
 Sampling rate                            : 48.0 kHz
 Frame rate                               : 31.250 FPS (1536 SPF)
 Bit depth                                : 16 bits
 Compression mode                         : Lossy
 Stream size                              : 168 MiB (1%)
 Title                                    : Suburbicon.2017.1080p.BluRay.REMUX.AVC.DTS-HD.MA.5.1-FGT
 Language                                 : English
 Service kind                             : Complete Main
 Default                                  : No
 Forced                                   : No

 Text #1
 ID                                       : 7
 Format                                   : PGS
 Muxing mode                              : zlib
 Codec ID                                 : S_HDMV/PGS
 Codec ID/Info                            : Picture based subtitle format used on BDs/HD-DVDs
 Duration                                 : 1 h 34 min
 Bit rate                                 : 33.6 kb/s
 Count of elements                        : 2544
 Stream size                              : 22.8 MiB (0%)
 Title                                    : English-PGS
 Language                                 : English
 Default                                  : Yes
 Forced                                   : No

 Text #2
 ID                                       : 8
 Format                                   : PGS
 Muxing mode                              : zlib
 Codec ID                                 : S_HDMV/PGS
 Codec ID/Info                            : Picture based subtitle format used on BDs/HD-DVDs
 Duration                                 : 1 h 35 min
 Bit rate                                 : 38.5 kb/s
 Count of elements                        : 2847
 Stream size                              : 26.2 MiB (0%)
 Title                                    : English-SDH-PGS
 Language                                 : English
 Default                                  : No
 Forced                                   : No

 Text #3
 ID                                       : 9
 Format                                   : PGS
 Muxing mode                              : zlib
 Codec ID                                 : S_HDMV/PGS
 Codec ID/Info                            : Picture based subtitle format used on BDs/HD-DVDs
 Duration                                 : 1 h 35 min
 Bit rate                                 : 33.2 kb/s
 Count of elements                        : 2538
 Stream size                              : 22.6 MiB (0%)
 Title                                    : Spanish-PGS
 Language                                 : Spanish
 Default                                  : No
 Forced                                   : No

 Text #4
 ID                                       : 10
 Format                                   : PGS
 Muxing mode                              : zlib
 Codec ID                                 : S_HDMV/PGS
 Codec ID/Info                            : Picture based subtitle format used on BDs/HD-DVDs
 Duration                                 : 1 h 5 min
 Bit rate                                 : 586 b/s
 Count of elements                        : 20
 Stream size                              : 280 KiB (0%)
 Title                                    : Spanish-FORCED-PGS
 Language                                 : Spanish
 Default                                  : No
 Forced                                   : No

 Menu
 00:00:00.000                             : en:Chapter 01
 00:04:50.164                             : en:Chapter 02
 00:15:11.452                             : en:Chapter 03
 00:23:09.304                             : en:Chapter 04
 00:33:08.611                             : en:Chapter 05
 00:39:36.916                             : en:Chapter 06
 00:44:29.124                             : en:Chapter 07
 00:49:19.539                             : en:Chapter 08
 00:56:36.559                             : en:Chapter 09
 01:05:06.777                             : en:Chapter 10
 01:14:14.283                             : en:Chapter 11
 01:23:46.855                             : en:Chapter 12
 01:27:54.352                             : en:Chapter 13
 01:33:47.913                             : en:Chapter 14
 01:37:15.204                             : en:Chapter 15


Image Image
Image Image

Image

LINK:

Suburbicon.2017.1080p.BluRay.REMUX.AVC.DTS-HD.MA.5.1-FGT.mkv  [28,03 Gb]
Suburbicon.2017.1080p.BluRay.REMUX.AVC.DTS-HD.MA.5.1-FGT.nfo  [10,6 Kb]

Legendas: Image
Suburbicon.2017.1080p.BluRay.REMUX.AVC.DTS-HD.MA.5.1-FGT.srt  [87,5 Kb]

Todos os horários são GMT - 4 Horas
Powered by phpBB © 2001 phpBB Group