PootzForce Evolution

Filmes Alta Definição / High Definition Movies - [1080p BluRay REMUX] Allegiant (2016) *RARBG*

lost_rider34 - Seg Fev 12, 2018 10:58 am
Assunto: [1080p BluRay REMUX] Allegiant (2016) *RARBG*
Image

Citação:
Tris (Shailene Woodley), Quatro (Theo James) e seus amigos estão prestes a pular a cerca que divide o mundo no qual até hoje viveram e um novo mundo até então por eles desconhecido, após terem descoberto que a distópica e destruída cidade de Chicago não é o último refúgio para a raça humana, mas foi usada como um experimento para Divergentes em desenvolvimento, tais como a nossa heroína. O que ela poderá fazer para salvar o resto do mundo é um mistério, mas ela vai aprender muito mais sobre isso com David (Jeff Daniels), o misterioso diretor do Departamento de Auxílio Genético.

After the earth-shattering revelations of INSURGENT, Tris (Shailene Woodley) must escape with Four (Theo James) and go beyond the wall enclosing Chicago. For the first time ever, they will leave the only city and family they have ever known. Once outside, old discoveries are quickly rendered meaningless with the revelation of shocking new truths. Tris and Four must quickly decide who they can trust as a ruthless battle ignites beyond the walls of Chicago which threatens all of humanity. In order to survive, Tris will be forced to make impossible choices about courage, allegiance, sacrifice and love.


[imdb]http://www.imdb.com/title/tt3410834/[/imdb]


Video
 ID                                       : 1
 Format                                   : AVC
 Format/Info                              : Advanced Video Codec
 Format profile                           : High@L4.1
 Format settings, CABAC                   : Yes
 Format settings, ReFrames                : 4 frames
 Codec ID                                 : V_MPEG4/ISO/AVC
 Duration                                 : 2h 0mn
 Bit rate mode                            : Variable
 Maximum bit rate                         : 36.5 Mbps
 Width                                    : 1 920 pixels
 Height                                   : 1 080 pixels
 Display aspect ratio                     : 16:9
 Frame rate mode                          : Constant
 Frame rate                               : 23.976 (24000/1001) fps
 Color space                              : YUV
 Chroma subsampling                       : 4:2:0
 Bit depth                                : 8 bits
 Scan type                                : Progressive
 Title                                    : Allegiant.2016.1080p.BluRay.REMUX.AVC.DTS-HD.MA.TrueHD.7.1.Atmos-RARBG
 Language                                 : English
 Default                                  : No
 Forced                                   : No

 Audio #1
 ID                                       : 2
 Format                                   : DTS
 Format/Info                              : Digital Theater Systems
 Format profile                           : MA / Core
 Mode                                     : 16
 Format settings, Endianness              : Big
 Codec ID                                 : A_DTS
 Duration                                 : 2h 0mn
 Bit rate mode                            : Variable / Constant
 Bit rate                                 : 4000 / 1 509 Kbps
 Channel(s)                               : 8 channels / 6 channels
 Channel positions                        : Front: L C R, Side: L R, Back: L R, LFE / Front: L C R, Side: L R, LFE
 Sampling rate                            : 48.0 KHz
 Frame rate                               : 93.750 fps (512 spf)
 Bit depth                                : 24 bits
 Compression mode                         : Lossless / Lossy
 Title                                    : Allegiant.2016.1080p.BluRay.REMUX.AVC.DTS-HD.MA.TrueHD.7.1.Atmos-RARBG
 Language                                 : English
 Default                                  : Yes
 Forced                                   : No

 Audio #2
 ID                                       : 3
 Format                                   : Atmos / TrueHD
 Codec ID                                 : A_TRUEHD
 Bit rate mode                            : Variable
 Maximum bit rate                         : 6 219 Kbps
 Channel(s)                               : Object Based / 8 channels
 Channel positions                        : Object Based / Front: L C R, Side: L R, Back: L R, LFE
 Sampling rate                            :  / 48.0 KHz
 Frame rate                               : 1 200.000 fps (40 spf)
 Compression mode                         : Lossless
 Title                                    : Allegiant.2016.1080p.BluRay.REMUX.AVC.DTS-HD.MA.TrueHD.7.1.Atmos-RARBG
 Language                                 : English
 Default                                  : No
 Forced                                   : No

 Audio #3
 ID                                       : 4
 Format                                   : AC-3
 Format/Info                              : Audio Coding 3
 Mode extension                           : CM (complete main)
 Format settings, Endianness              : Big
 Codec ID                                 : A_AC3
 Duration                                 : 2h 0mn
 Bit rate mode                            : Constant
 Bit rate                                 : 640 Kbps
 Channel(s)                               : 6 channels
 Channel positions                        : Front: L C R, Side: L R, LFE
 Sampling rate                            : 48.0 KHz
 Frame rate                               : 31.250 fps (1536 spf)
 Compression mode                         : Lossy
 Stream size                              : 552 MiB (1%)
 Title                                    : Allegiant.2016.1080p.BluRay.REMUX.AVC.DTS-HD.MA.TrueHD.7.1.Atmos-RARBG
 Language                                 : English
 Default                                  : No
 Forced                                   : No

 Audio #4
 ID                                       : 5
 Format                                   : AC-3
 Format/Info                              : Audio Coding 3
 Mode extension                           : CM (complete main)
 Format settings, Endianness              : Big
 Codec ID                                 : A_AC3
 Duration                                 : 2h 0mn
 Bit rate mode                            : Constant
 Bit rate                                 : 640 Kbps
 Channel(s)                               : 6 channels
 Channel positions                        : Front: L C R, Side: L R, LFE
 Sampling rate                            : 48.0 KHz
 Frame rate                               : 31.250 fps (1536 spf)
 Compression mode                         : Lossy
 Stream size                              : 552 MiB (1%)
 Title                                    : Allegiant.2016.1080p.BluRay.REMUX.AVC.DTS-HD.MA.TrueHD.7.1.Atmos-RARBG
 Language                                 : Spanish
 Default                                  : No
 Forced                                   : No

 Audio #5
 ID                                       : 6
 Format                                   : AC-3
 Format/Info                              : Audio Coding 3
 Format profile                           : Dolby Digital
 Mode extension                           : CM (complete main)
 Format settings, Endianness              : Big
 Codec ID                                 : A_AC3
 Duration                                 : 2h 0mn
 Bit rate mode                            : Constant
 Bit rate                                 : 224 Kbps
 Channel(s)                               : 2 channels
 Channel positions                        : Front: L R
 Sampling rate                            : 48.0 KHz
 Frame rate                               : 31.250 fps (1536 spf)
 Compression mode                         : Lossy
 Stream size                              : 193 MiB (1%)
 Title                                    : Allegiant.2016.1080p.BluRay.REMUX.AVC.DTS-HD.MA.TrueHD.7.1.Atmos-RARBG
 Language                                 : English
 Default                                  : No
 Forced                                   : No

 Audio #6
 ID                                       : 7
 Format                                   : AC-3
 Format/Info                              : Audio Coding 3
 Format profile                           : Dolby Digital
 Mode extension                           : CM (complete main)
 Format settings, Endianness              : Big
 Codec ID                                 : A_AC3
 Duration                                 : 2h 0mn
 Bit rate mode                            : Constant
 Bit rate                                 : 224 Kbps
 Channel(s)                               : 2 channels
 Channel positions                        : Front: L R
 Sampling rate                            : 48.0 KHz
 Frame rate                               : 31.250 fps (1536 spf)
 Compression mode                         : Lossy
 Stream size                              : 193 MiB (1%)
 Title                                    : Allegiant.2016.1080p.BluRay.REMUX.AVC.DTS-HD.MA.TrueHD.7.1.Atmos-RARBG
 Language                                 : English
 Default                                  : No
 Forced                                   : No

 Audio #7
 ID                                       : 8
 Format                                   : AC-3
 Format/Info                              : Audio Coding 3
 Mode extension                           : CM (complete main)
 Format settings, Endianness              : Big
 Codec ID                                 : A_AC3
 Duration                                 : 2h 0mn
 Bit rate mode                            : Constant
 Bit rate                                 : 192 Kbps
 Channel(s)                               : 2 channels
 Channel positions                        : Front: L R
 Sampling rate                            : 48.0 KHz
 Frame rate                               : 31.250 fps (1536 spf)
 Compression mode                         : Lossy
 Stream size                              : 166 MiB (0%)
 Title                                    : Allegiant.2016.1080p.BluRay.REMUX.AVC.DTS-HD.MA.TrueHD.7.1.Atmos-RARBG
 Language                                 : English
 Default                                  : No
 Forced                                   : No

 Text #1
 ID                                       : 9
 Format                                   : PGS
 Muxing mode                              : zlib
 Codec ID                                 : S_HDMV/PGS
 Codec ID/Info                            : Picture based subtitle format used on BDs/HD-DVDs
 Title                                    : English-PGS
 Language                                 : English
 Default                                  : No
 Forced                                   : No

 Text #2
 ID                                       : 10
 Format                                   : PGS
 Muxing mode                              : zlib
 Codec ID                                 : S_HDMV/PGS
 Codec ID/Info                            : Picture based subtitle format used on BDs/HD-DVDs
 Title                                    : English-SDH-PGS
 Language                                 : English
 Default                                  : No
 Forced                                   : No

 Text #3
 ID                                       : 11
 Format                                   : PGS
 Muxing mode                              : zlib
 Codec ID                                 : S_HDMV/PGS
 Codec ID/Info                            : Picture based subtitle format used on BDs/HD-DVDs
 Title                                    : Spanish-PGS
 Language                                 : Spanish
 Default                                  : No
 Forced                                   : No

 Text #4
 ID                                       : 12
 Format                                   : PGS
 Muxing mode                              : zlib
 Codec ID                                 : S_HDMV/PGS
 Codec ID/Info                            : Picture based subtitle format used on BDs/HD-DVDs
 Title                                    : Spanish-FORCED-PGS
 Language                                 : Spanish
 Default                                  : No
 Forced                                   : No

 Menu
 00:00:00.000                             : en:Chapter 01
 00:09:46.335                             : en:Chapter 02
 00:16:54.304                             : en:Chapter 03
 00:25:52.092                             : en:Chapter 04
 00:32:45.213                             : en:Chapter 05
 00:37:26.202                             : en:Chapter 06
 00:45:49.538                             : en:Chapter 07
 00:53:31.458                             : en:Chapter 08
 00:58:18.244                             : en:Chapter 09
 01:07:21.162                             : en:Chapter 10
 01:13:46.713                             : en:Chapter 11
 01:19:51.036                             : en:Chapter 12
 01:26:40.236                             : en:Chapter 13
 01:33:12.128                             : en:Chapter 14
 01:40:24.059                             : en:Chapter 15
 01:46:18.872                             : en:Chapter 16


Image Image
Image Image

Image

LINKS:

Allegiant.2016.1080p.BluRay.REMUX.AVC.DTS-HD.MA.TrueHD.7.1.Atmos-RARBG.mkv  [37,46 Gb]
Allegiant.2016.1080p.BluRay.REMUX.AVC.DTS-HD.MA.TrueHD.7.1.Atmos-RARBG.nfo  [12,5 Kb]

Legendas: Image
Allegiant.2016.1080p.BluRay.REMUX.AVC.DTS-HD.MA.TrueHD.7.1.Atmos-RARBG.srt  [77,5 Kb]

Todos os horários são GMT - 4 Horas
Powered by phpBB © 2001 phpBB Group