PootzForce Evolution

Filmes Alta Definição / High Definition Movies - [1080p BluRay REMUX] Cold Skin (2017) *FGT*

lost_rider34 - Dom Mar 04, 2018 9:54 am
Assunto: [1080p BluRay REMUX] Cold Skin (2017) *FGT*
Image

Citação:
Anos após a Primeira Guerra Mundial, um navio se aproxima de uma ilha isolada na Antártica. À bordo está um homem, mandado para substituir outro que desapareceu. Ao chegar na ilha, ele encontra apenas um náufrago perturbado que testemunhou algo que se recusa a comentar. Mas ele logo descobrirá quando a noite cair.

In 1914| just after of Franz Ferdinand's assassination that eventually caused World War I| a steamship approaches a desolate island on the edge of the Antarctic Circle| where a young nameless man is poised to take the post of weather observer| to live in solitude at the ends of the earth for an entire year until the arrival of his replacement. For the next twelve months| his entire world will consist of a deserted cabin| the surrounding sea| and dangerous strange beings that he discovers are sharing the island.


[imdb]http://www.imdb.com/title/tt1034385/[/imdb]


Video
 ID                                       : 1
 Format                                   : AVC
 Format/Info                              : Advanced Video Codec
 Format profile                           : High@L4.1
 Format settings                          : CABAC / 4 Ref Frames
 Format settings, CABAC                   : Yes
 Format settings, ReFrames                : 4 frames
 Codec ID                                 : V_MPEG4/ISO/AVC
 Duration                                 : 1 h 46 min
 Bit rate mode                            : Constant
 Bit rate                                 : 19.0 Mb/s
 Nominal bit rate                         : 20.0 Mb/s
 Width                                    : 1 920 pixels
 Height                                   : 1 080 pixels
 Display aspect ratio                     : 16:9
 Frame rate mode                          : Constant
 Frame rate                               : 24.000 FPS
 Standard                                 : NTSC
 Color space                              : YUV
 Chroma subsampling                       : 4:2:0
 Bit depth                                : 8 bits
 Scan type                                : Progressive
 Bits/(Pixel*Frame)                       : 0.382
 Stream size                              : 14.1 GiB (51%)
 Title                                    : Cold.Skin.2017.1080p.BluRay.REMUX.AVC.DTS-HD.MA.TrueHD.7.1.Atmos-FGT
 Language                                 : English
 Default                                  : No
 Forced                                   : No
 Color range                              : Limited
 Color primaries                          : BT.709
 Transfer characteristics                 : BT.709
 Matrix coefficients                      : BT.709

 Audio #1
 ID                                       : 2
 Format                                   : TrueHD
 Format profile                           : TrueHD+Atmos / TrueHD
 Codec ID                                 : A_TRUEHD
 Duration                                 : 1 h 47 min
 Bit rate mode                            : Variable
 Bit rate                                 : 4 102 kb/s
 Maximum bit rate                         : 7 680 kb/s
 Channel(s)                               : Object Based / 8 channels
 Channel positions                        : Object Based / Front: L C R, Side: L R, Back: L R, LFE
 Sampling rate                            :  / 48.0 kHz
 Frame rate                               : 1 200.000 FPS (40 SPF)
 Compression mode                         : Lossless
 Stream size                              : 3.07 GiB (11%)
 Title                                    : Cold.Skin.2017.1080p.BluRay.REMUX.AVC.DTS-HD.MA.TrueHD.7.1.Atmos-FGT
 Language                                 : English
 Default                                  : Yes
 Forced                                   : No

 Audio #2
 ID                                       : 3
 Format                                   : DTS
 Format/Info                              : Digital Theater Systems
 Format profile                           : MA / Core
 Codec ID                                 : A_DTS
 Duration                                 : 1 h 47 min
 Bit rate mode                            : Variable / Constant
 Bit rate                                 : 4 437 kb/s / 1 509 kb/s
 Channel(s)                               : 8 channels / 6 channels
 Channel positions                        : Front: L C R, Side: L R, Back: L R, LFE / Front: L C R, Side: L R, LFE
 Sampling rate                            : 48.0 kHz
 Frame rate                               : 93.750 FPS (512 SPF)
 Bit depth                                : 24 bits
 Compression mode                         : Lossless / Lossy
 Stream size                              : 3.33 GiB (12%)
 Title                                    : Cold.Skin.2017.1080p.BluRay.REMUX.AVC.DTS-HD.MA.TrueHD.7.1.Atmos-FGT
 Language                                 : English
 Default                                  : No
 Forced                                   : No

 Audio #3
 ID                                       : 4
 Format                                   : AC-3
 Format/Info                              : Audio Coding 3
 Codec ID                                 : A_AC3
 Duration                                 : 1 h 47 min
 Bit rate mode                            : Constant
 Bit rate                                 : 384 kb/s
 Channel(s)                               : 6 channels
 Channel positions                        : Front: L C R, Side: L R, LFE
 Sampling rate                            : 48.0 kHz
 Frame rate                               : 31.250 FPS (1536 SPF)
 Bit depth                                : 16 bits
 Compression mode                         : Lossy
 Stream size                              : 295 MiB (1%)
 Title                                    : Cold.Skin.2017.1080p.BluRay.REMUX.AVC.DTS-HD.MA.TrueHD.7.1.Atmos-FGT
 Language                                 : English
 Service kind                             : Complete Main
 Default                                  : No
 Forced                                   : No

 Audio #4
 ID                                       : 5
 Format                                   : TrueHD
 Format profile                           : TrueHD+Atmos / TrueHD
 Codec ID                                 : A_TRUEHD
 Duration                                 : 1 h 46 min
 Bit rate mode                            : Variable
 Bit rate                                 : 4 169 kb/s
 Maximum bit rate                         : 7 551 kb/s
 Channel(s)                               : Object Based / 8 channels
 Channel positions                        : Object Based / Front: L C R, Side: L R, Back: L R, LFE
 Sampling rate                            :  / 48.0 kHz
 Frame rate                               : 1 200.000 FPS (40 SPF)
 Compression mode                         : Lossless
 Stream size                              : 3.10 GiB (11%)
 Title                                    : Cold.Skin.2017.1080p.BluRay.REMUX.AVC.DTS-HD.MA.TrueHD.7.1.Atmos-FGT
 Language                                 : Spanish
 Default                                  : No
 Forced                                   : No

 Audio #5
 ID                                       : 6
 Format                                   : AC-3
 Format/Info                              : Audio Coding 3
 Codec ID                                 : A_AC3
 Duration                                 : 1 h 46 min
 Bit rate mode                            : Constant
 Bit rate                                 : 384 kb/s
 Channel(s)                               : 6 channels
 Channel positions                        : Front: L C R, Side: L R, LFE
 Sampling rate                            : 48.0 kHz
 Frame rate                               : 31.250 FPS (1536 SPF)
 Bit depth                                : 16 bits
 Compression mode                         : Lossy
 Stream size                              : 293 MiB (1%)
 Title                                    : Cold.Skin.2017.1080p.BluRay.REMUX.AVC.DTS-HD.MA.TrueHD.7.1.Atmos-FGT
 Language                                 : Spanish
 Service kind                             : Complete Main
 Default                                  : No
 Forced                                   : No

 Audio #6
 ID                                       : 7
 Format                                   : TrueHD
 Format profile                           : TrueHD+Atmos / TrueHD
 Codec ID                                 : A_TRUEHD
 Duration                                 : 1 h 46 min
 Bit rate mode                            : Variable
 Bit rate                                 : 4 124 kb/s
 Maximum bit rate                         : 7 584 kb/s
 Channel(s)                               : Object Based / 8 channels
 Channel positions                        : Object Based / Front: L C R, Side: L R, Back: L R, LFE
 Sampling rate                            :  / 48.0 kHz
 Frame rate                               : 1 200.000 FPS (40 SPF)
 Compression mode                         : Lossless
 Stream size                              : 3.08 GiB (11%)
 Title                                    : Cold.Skin.2017.1080p.BluRay.REMUX.AVC.DTS-HD.MA.TrueHD.7.1.Atmos-FGT
 Language                                 : Catalan
 Default                                  : No
 Forced                                   : No

 Audio #7
 ID                                       : 8
 Format                                   : AC-3
 Format/Info                              : Audio Coding 3
 Codec ID                                 : A_AC3
 Duration                                 : 1 h 46 min
 Bit rate mode                            : Constant
 Bit rate                                 : 384 kb/s
 Channel(s)                               : 6 channels
 Channel positions                        : Front: L C R, Side: L R, LFE
 Sampling rate                            : 48.0 kHz
 Frame rate                               : 31.250 FPS (1536 SPF)
 Bit depth                                : 16 bits
 Compression mode                         : Lossy
 Stream size                              : 294 MiB (1%)
 Title                                    : Cold.Skin.2017.1080p.BluRay.REMUX.AVC.DTS-HD.MA.TrueHD.7.1.Atmos-FGT
 Language                                 : Catalan
 Service kind                             : Complete Main
 Default                                  : No
 Forced                                   : No

 Text #1
 ID                                       : 9
 Format                                   : PGS
 Muxing mode                              : zlib
 Codec ID                                 : S_HDMV/PGS
 Codec ID/Info                            : Picture based subtitle format used on BDs/HD-DVDs
 Duration                                 : 1 h 37 min
 Bit rate                                 : 15.2 kb/s
 Count of elements                        : 990
 Stream size                              : 10.5 MiB (0%)
 Title                                    : Spanish-PGS
 Language                                 : Spanish
 Default                                  : No
 Forced                                   : No

 Text #2
 ID                                       : 10
 Format                                   : PGS
 Muxing mode                              : zlib
 Codec ID                                 : S_HDMV/PGS
 Codec ID/Info                            : Picture based subtitle format used on BDs/HD-DVDs
 Duration                                 : 1 h 37 min
 Bit rate                                 : 14.5 kb/s
 Count of elements                        : 990
 Stream size                              : 10.1 MiB (0%)
 Title                                    : Catalan-PGS
 Language                                 : Catalan
 Default                                  : No
 Forced                                   : No

 Menu
 00:00:00.000                             : en:Chapter 01
 00:13:28.041                             : en:Chapter 02
 00:25:55.916                             : en:Chapter 03
 00:39:05.541                             : en:Chapter 04
 00:52:51.625                             : en:Chapter 05
 01:06:24.833                             : en:Chapter 06
 01:19:24.916                             : en:Chapter 07
 01:32:34.166                             : en:Chapter 08


Image Image
Image Image

Image

LINKS:

Cold.Skin.2017.1080p.BluRay.REMUX.AVC.DTS-HD.MA.TrueHD.7.1.Atmos-FGT.mkv  [27,72 Gb]
Cold.Skin.2017.1080p.BluRay.REMUX.AVC.DTS-HD.MA.TrueHD.7.1.Atmos-FGT.nfo  [11,4 Kb]


Legendas: Image
Cold.Skin.2017.1080p.BluRay.REMUX.AVC.DTS-HD.MA.TrueHD.7.1.Atmos-FGT.srt  [33,5 Kb]

Todos os horários são GMT - 4 Horas
Powered by phpBB © 2001 phpBB Group