PootzForce Evolution

Filmes Alta Definição / High Definition Movies - [1080p BluRay REMUX] Thor Ragnarok (2017) *FGT*

lost_rider34 - Dom Mar 04, 2018 10:58 am
Assunto: [1080p BluRay REMUX] Thor Ragnarok (2017) *FGT*
Image

Citação:
Thor está aprisionado do outro lado do universo, sem seu martelo, e se vê em uma corrida para voltar até Asgard e impedir o Ragnarok – a destruição de seu lar e o fim da civilização asgardiana – que está nas mãos de uma nova e poderosa ameaça, a terrível Hela. Mas primeiro ele precisa sobreviver a uma batalha de gladiadores que o coloca contra seu ex-aliado e vingador – o Incrível Hulk.

In Marvel Studios' "Thor: Ragnarok," Thor is imprisoned on the other side of the universe without his mighty hammer and finds himself in a race against time to get back to Asgard to stop Ragnarok--the destruction of his homeworld and the end of Asgardian civilization--at the hands of an all-powerful new threat, the ruthless Hela. But first he must survive a deadly gladiatorial contest that pits him against his former ally and fellow Avenger--the Incredible Hulk!


[imdb]http://www.imdb.com/title/tt3501632/[/imdb]


Video
 ID                                       : 1
 Format                                   : AVC
 Format/Info                              : Advanced Video Codec
 Format profile                           : High@L4.1
 Format settings                          : CABAC / 4 Ref Frames
 Format settings, CABAC                   : Yes
 Format settings, ReFrames                : 4 frames
 Codec ID                                 : V_MPEG4/ISO/AVC
 Duration                                 : 2 h 10 min
 Bit rate mode                            : Variable
 Bit rate                                 : 23.8 Mb/s
 Maximum bit rate                         : 34.0 Mb/s
 Width                                    : 1 920 pixels
 Height                                   : 1 080 pixels
 Display aspect ratio                     : 16:9
 Frame rate mode                          : Constant
 Frame rate                               : 23.976 (24000/1001) FPS
 Color space                              : YUV
 Chroma subsampling                       : 4:2:0
 Bit depth                                : 8 bits
 Scan type                                : Progressive
 Bits/(Pixel*Frame)                       : 0.479
 Stream size                              : 21.7 GiB (73%)
 Title                                    : Thor.Ragnarok.2017.1080p.BluRay.REMUX.AVC.DTS-HD.MA.7.1-FGT
 Language                                 : English
 Default                                  : No
 Forced                                   : No

 Audio #1
 ID                                       : 2
 Format                                   : DTS
 Format/Info                              : Digital Theater Systems
 Format profile                           : MA / Core
 Codec ID                                 : A_DTS
 Duration                                 : 2 h 10 min
 Bit rate mode                            : Variable / Constant
 Bit rate                                 : 4 891 kb/s / 1 509 kb/s
 Channel(s)                               : 8 channels / 6 channels
 Channel positions                        : Front: L C R, Side: L R, Back: L R, LFE / Front: L C R, Side: L R, LFE
 Sampling rate                            : 48.0 kHz
 Frame rate                               : 93.750 FPS (512 SPF)
 Bit depth                                : 24 bits
 Compression mode                         : Lossless / Lossy
 Stream size                              : 4.46 GiB (15%)
 Title                                    : Thor.Ragnarok.2017.1080p.BluRay.REMUX.AVC.DTS-HD.MA.7.1-FGT
 Language                                 : English
 Default                                  : Yes
 Forced                                   : No

 Audio #2
 ID                                       : 3
 Format                                   : DTS
 Format/Info                              : Digital Theater Systems
 Codec ID                                 : A_DTS
 Duration                                 : 2 h 10 min
 Bit rate mode                            : Constant
 Bit rate                                 : 1 509 kb/s
 Channel(s)                               : 6 channels
 Channel positions                        : Front: L C R, Side: L R, LFE
 Sampling rate                            : 48.0 kHz
 Frame rate                               : 93.750 FPS (512 SPF)
 Bit depth                                : 24 bits
 Compression mode                         : Lossy
 Stream size                              : 1.38 GiB (5%)
 Title                                    : Thor.Ragnarok.2017.1080p.BluRay.REMUX.AVC.DTS-HD.MA.7.1-FGT
 Language                                 : English
 Default                                  : No
 Forced                                   : No

 Audio #3
 ID                                       : 4
 Format                                   : AC-3
 Format/Info                              : Audio Coding 3
 Codec ID                                 : A_AC3
 Duration                                 : 2 h 10 min
 Bit rate mode                            : Constant
 Bit rate                                 : 320 kb/s
 Channel(s)                               : 2 channels
 Channel positions                        : Front: L R
 Sampling rate                            : 48.0 kHz
 Frame rate                               : 31.250 FPS (1536 SPF)
 Bit depth                                : 16 bits
 Compression mode                         : Lossy
 Stream size                              : 299 MiB (1%)
 Title                                    : Thor.Ragnarok.2017.1080p.BluRay.REMUX.AVC.DTS-HD.MA.7.1-FGT
 Language                                 : English
 Service kind                             : Complete Main
 Default                                  : No
 Forced                                   : No

 Audio #4
 ID                                       : 5
 Format                                   : AC-3
 Format/Info                              : Audio Coding 3
 Codec ID                                 : A_AC3
 Duration                                 : 2 h 10 min
 Bit rate mode                            : Constant
 Bit rate                                 : 640 kb/s
 Channel(s)                               : 6 channels
 Channel positions                        : Front: L C R, Side: L R, LFE
 Sampling rate                            : 48.0 kHz
 Frame rate                               : 31.250 FPS (1536 SPF)
 Bit depth                                : 16 bits
 Compression mode                         : Lossy
 Stream size                              : 597 MiB (2%)
 Title                                    : Thor.Ragnarok.2017.1080p.BluRay.REMUX.AVC.DTS-HD.MA.7.1-FGT
 Language                                 : French
 Service kind                             : Complete Main
 Default                                  : No
 Forced                                   : No

 Audio #5
 ID                                       : 6
 Format                                   : AC-3
 Format/Info                              : Audio Coding 3
 Codec ID                                 : A_AC3
 Duration                                 : 2 h 10 min
 Bit rate mode                            : Constant
 Bit rate                                 : 640 kb/s
 Channel(s)                               : 6 channels
 Channel positions                        : Front: L C R, Side: L R, LFE
 Sampling rate                            : 48.0 kHz
 Frame rate                               : 31.250 FPS (1536 SPF)
 Bit depth                                : 16 bits
 Compression mode                         : Lossy
 Stream size                              : 597 MiB (2%)
 Title                                    : Thor.Ragnarok.2017.1080p.BluRay.REMUX.AVC.DTS-HD.MA.7.1-FGT
 Language                                 : Spanish
 Service kind                             : Complete Main
 Default                                  : No
 Forced                                   : No

 Audio #6
 ID                                       : 7
 Format                                   : AC-3
 Format/Info                              : Audio Coding 3
 Codec ID                                 : A_AC3
 Duration                                 : 2 h 10 min
 Bit rate mode                            : Constant
 Bit rate                                 : 640 kb/s
 Channel(s)                               : 6 channels
 Channel positions                        : Front: L C R, Side: L R, LFE
 Sampling rate                            : 48.0 kHz
 Frame rate                               : 31.250 FPS (1536 SPF)
 Bit depth                                : 16 bits
 Compression mode                         : Lossy
 Stream size                              : 597 MiB (2%)
 Title                                    : Thor.Ragnarok.2017.1080p.BluRay.REMUX.AVC.DTS-HD.MA.7.1-FGT
 Language                                 : Portuguese
 Service kind                             : Complete Main
 Default                                  : No
 Forced                                   : No

 Audio #7
 ID                                       : 8
 Format                                   : AC-3
 Format/Info                              : Audio Coding 3
 Codec ID                                 : A_AC3
 Duration                                 : 2 h 10 min
 Bit rate mode                            : Constant
 Bit rate                                 : 192 kb/s
 Channel(s)                               : 2 channels
 Channel positions                        : Front: L R
 Sampling rate                            : 48.0 kHz
 Frame rate                               : 31.250 FPS (1536 SPF)
 Bit depth                                : 16 bits
 Compression mode                         : Lossy
 Stream size                              : 179 MiB (1%)
 Title                                    : Thor.Ragnarok.2017.1080p.BluRay.REMUX.AVC.DTS-HD.MA.7.1-FGT
 Language                                 : English
 Service kind                             : Complete Main
 Default                                  : No
 Forced                                   : No

 Text #1
 ID                                       : 9
 Format                                   : PGS
 Muxing mode                              : zlib
 Codec ID                                 : S_HDMV/PGS
 Codec ID/Info                            : Picture based subtitle format used on BDs/HD-DVDs
 Duration                                 : 2 h 10 min
 Bit rate                                 : 38.1 kb/s
 Count of elements                        : 4162
 Stream size                              : 35.5 MiB (0%)
 Title                                    : English-PGS
 Language                                 : English
 Default                                  : Yes
 Forced                                   : No

 Text #2
 ID                                       : 10
 Format                                   : PGS
 Muxing mode                              : zlib
 Codec ID                                 : S_HDMV/PGS
 Codec ID/Info                            : Picture based subtitle format used on BDs/HD-DVDs
 Duration                                 : 2 h 9 min
 Bit rate                                 : 30.5 kb/s
 Count of elements                        : 3182
 Stream size                              : 28.3 MiB (0%)
 Title                                    : French-PGS
 Language                                 : French
 Default                                  : No
 Forced                                   : No

 Text #3
 ID                                       : 11
 Format                                   : PGS
 Muxing mode                              : zlib
 Codec ID                                 : S_HDMV/PGS
 Codec ID/Info                            : Picture based subtitle format used on BDs/HD-DVDs
 Duration                                 : 2 h 9 min
 Bit rate                                 : 31.5 kb/s
 Count of elements                        : 3144
 Stream size                              : 29.1 MiB (0%)
 Title                                    : Spanish-PGS
 Language                                 : Spanish
 Default                                  : No
 Forced                                   : No

 Text #4
 ID                                       : 12
 Format                                   : PGS
 Muxing mode                              : zlib
 Codec ID                                 : S_HDMV/PGS
 Codec ID/Info                            : Picture based subtitle format used on BDs/HD-DVDs
 Duration                                 : 2 h 9 min
 Bit rate                                 : 30.1 kb/s
 Count of elements                        : 3144
 Stream size                              : 27.9 MiB (0%)
 Title                                    : Portuguese-PGS
 Language                                 : Portuguese
 Default                                  : No
 Forced                                   : No

 Text #5
 ID                                       : 13
 Format                                   : PGS
 Muxing mode                              : zlib
 Codec ID                                 : S_HDMV/PGS
 Codec ID/Info                            : Picture based subtitle format used on BDs/HD-DVDs
 Duration                                 : 2 h 10 min
 Bit rate                                 : 58.7 kb/s
 Count of elements                        : 4458
 Stream size                              : 54.7 MiB (0%)
 Title                                    : English-COMMENTARY-PGS
 Language                                 : English
 Default                                  : No
 Forced                                   : No

 Text #6
 ID                                       : 14
 Format                                   : PGS
 Muxing mode                              : zlib
 Codec ID                                 : S_HDMV/PGS
 Codec ID/Info                            : Picture based subtitle format used on BDs/HD-DVDs
 Duration                                 : 2 h 10 min
 Bit rate                                 : 51.3 kb/s
 Count of elements                        : 4320
 Stream size                              : 47.8 MiB (0%)
 Title                                    : French-COMMENTARY-PGS
 Language                                 : French
 Default                                  : No
 Forced                                   : No

 Text #7
 ID                                       : 15
 Format                                   : PGS
 Muxing mode                              : zlib
 Codec ID                                 : S_HDMV/PGS
 Codec ID/Info                            : Picture based subtitle format used on BDs/HD-DVDs
 Duration                                 : 2 h 10 min
 Bit rate                                 : 54.9 kb/s
 Count of elements                        : 4330
 Stream size                              : 51.2 MiB (0%)
 Title                                    : Spanish-COMMENTARY-PGS
 Language                                 : Spanish
 Default                                  : No
 Forced                                   : No

 Text #8
 ID                                       : 16
 Format                                   : PGS
 Muxing mode                              : zlib
 Codec ID                                 : S_HDMV/PGS
 Codec ID/Info                            : Picture based subtitle format used on BDs/HD-DVDs
 Duration                                 : 2 h 10 min
 Bit rate                                 : 53.8 kb/s
 Count of elements                        : 4332
 Stream size                              : 50.1 MiB (0%)
 Title                                    : Portuguese-COMMENTARY-PGS
 Language                                 : Portuguese
 Default                                  : No
 Forced                                   : No

 Text #9
 ID                                       : 17
 Format                                   : PGS
 Muxing mode                              : zlib
 Codec ID                                 : S_HDMV/PGS
 Codec ID/Info                            : Picture based subtitle format used on BDs/HD-DVDs
 Duration                                 : 9 min 46 s
 Bit rate                                 : 3 780 b/s
 Count of elements                        : 42
 Stream size                              : 271 KiB (0%)
 Title                                    : French-FORCED-PGS
 Language                                 : French
 Default                                  : No
 Forced                                   : No

 Text #10
 ID                                       : 18
 Format                                   : PGS
 Muxing mode                              : zlib
 Codec ID                                 : S_HDMV/PGS
 Codec ID/Info                            : Picture based subtitle format used on BDs/HD-DVDs
 Duration                                 : 1 h 56 min
 Bit rate                                 : 74 b/s
 Count of elements                        : 6
 Stream size                              : 63.7 KiB (0%)
 Title                                    : Spanish-FORCED-PGS
 Language                                 : Spanish
 Default                                  : No
 Forced                                   : No

 Text #11
 ID                                       : 19
 Format                                   : PGS
 Muxing mode                              : zlib
 Codec ID                                 : S_HDMV/PGS
 Codec ID/Info                            : Picture based subtitle format used on BDs/HD-DVDs
 Duration                                 : 1 h 56 min
 Bit rate                                 : 82 b/s
 Count of elements                        : 6
 Stream size                              : 70.1 KiB (0%)
 Title                                    : Portuguese-FORCED-PGS
 Language                                 : Portuguese
 Default                                  : No
 Forced                                   : No

 Menu
 00:00:00.000                             : en:Chapter 01
 00:06:20.671                             : en:Chapter 02
 00:14:11.642                             : en:Chapter 03
 00:22:12.873                             : en:Chapter 04
 00:26:43.059                             : en:Chapter 05
 00:31:29.721                             : en:Chapter 06
 00:35:04.519                             : en:Chapter 07
 00:42:49.733                             : en:Chapter 08
 00:48:31.617                             : en:Chapter 09
 00:59:38.783                             : en:Chapter 10
 01:07:57.907                             : en:Chapter 11
 01:17:30.604                             : en:Chapter 12
 01:27:25.323                             : en:Chapter 13
 01:36:08.721                             : en:Chapter 14
 01:42:35.732                             : en:Chapter 15
 01:49:19.886                             : en:Chapter 16
 01:54:57.599                             : en:Chapter 17
 02:00:37.521                             : en:Chapter 18


Image Image
Image Image

Image

LINKS

Thor.Ragnarok.2017.1080p.BluRay.REMUX.AVC.DTS-HD.MA.7.1-FGT.mkv  [29,88 Gb]
Thor.Ragnarok.2017.1080p.BluRay.REMUX.AVC.DTS-HD.MA.7.1-FGT.nfo  [18,1 Kb]

Legendas: Image
Thor.Ragnarok.2017.1080p.BluRay.REMUX.AVC.DTS-HD.MA.7.1-FGT.srt  [99,2 Kb]

Todos os horários são GMT - 4 Horas
Powered by phpBB © 2001 phpBB Group