PootzForce Evolution

Filmes Alta Definição / High Definition Movies - [1080p BluRay REMUX] A Bad Moms Christmas (2017) *FGT*

lost_rider34 - Dom Mar 04, 2018 11:07 am
Assunto: [1080p BluRay REMUX] A Bad Moms Christmas (2017) *FGT*
Image


Citação:
As mães Amy (Mila Kunis), Kiki (Kristen Bell) e Carla (Kathryn Hahn) se rebelam contra os desafios e expectativas do evento mais esperado do ano para as Mães: o Natal. Como se criar o feriado perfeito para suas famílias não fosse difícil o suficiente, elas ainda terão que lidar com as visitas de suas mães (Christine Baranksi, Cheryl Hines e Susan Sarandon).

A BAD MOMS CHRISTMAS follows our three under-appreciated and over-burdened women as they rebel against the challenges and expectations of the Super Bowl for moms: Christmas. And if creating a more perfect holiday for their families wasn't hard enough, they have to do all of that while hosting and entertaining their own mothers. By the end of the journey, our moms will redefine how to make the holidays special for all and discover a closer relationship with their mothers.


[imdb]http://www.imdb.com/title/tt6359956/[/imdb]


Video
 ID                                       : 1
 Format                                   : AVC
 Format/Info                              : Advanced Video Codec
 Format profile                           : High@L4.1
 Format settings                          : CABAC / 4 Ref Frames
 Format settings, CABAC                   : Yes
 Format settings, ReFrames                : 4 frames
 Codec ID                                 : V_MPEG4/ISO/AVC
 Duration                                 : 1 h 44 min
 Bit rate mode                            : Variable
 Bit rate                                 : 32.1 Mb/s
 Maximum bit rate                         : 37.0 Mb/s
 Width                                    : 1 920 pixels
 Height                                   : 1 080 pixels
 Display aspect ratio                     : 16:9
 Frame rate mode                          : Constant
 Frame rate                               : 23.976 (24000/1001) FPS
 Color space                              : YUV
 Chroma subsampling                       : 4:2:0
 Bit depth                                : 8 bits
 Scan type                                : Progressive
 Bits/(Pixel*Frame)                       : 0.645
 Stream size                              : 23.4 GiB (89%)
 Title                                    : A.Bad.Moms.Christmas.2017.1080p.BluRay.REMUX.AVC.DTS-HD.MA.5.1-FGT
 Language                                 : English
 Default                                  : No
 Forced                                   : No

 Audio #1
 ID                                       : 2
 Format                                   : DTS
 Format/Info                              : Digital Theater Systems
 Format profile                           : MA / Core
 Codec ID                                 : A_DTS
 Duration                                 : 1 h 44 min
 Bit rate mode                            : Variable / Constant
 Bit rate                                 : 2 591 kb/s / 1 509 kb/s
 Channel(s)                               : 6 channels
 Channel positions                        : Front: L C R, Side: L R, LFE
 Sampling rate                            : 48.0 kHz
 Frame rate                               : 93.750 FPS (512 SPF)
 Bit depth                                : 24 bits
 Compression mode                         : Lossless / Lossy
 Stream size                              : 1.89 GiB (7%)
 Title                                    : A.Bad.Moms.Christmas.2017.1080p.BluRay.REMUX.AVC.DTS-HD.MA.5.1-FGT
 Language                                 : English
 Default                                  : Yes
 Forced                                   : No

 Audio #2
 ID                                       : 3
 Format                                   : DTS
 Format/Info                              : Digital Theater Systems
 Codec ID                                 : A_DTS
 Duration                                 : 1 h 44 min
 Bit rate mode                            : Constant
 Bit rate                                 : 1 509 kb/s
 Channel(s)                               : 6 channels
 Channel positions                        : Front: L C R, Side: L R, LFE
 Sampling rate                            : 48.0 kHz
 Frame rate                               : 93.750 FPS (512 SPF)
 Bit depth                                : 24 bits
 Compression mode                         : Lossy
 Stream size                              : 1.10 GiB (4%)
 Title                                    : A.Bad.Moms.Christmas.2017.1080p.BluRay.REMUX.AVC.DTS-HD.MA.5.1-FGT
 Language                                 : English
 Default                                  : No
 Forced                                   : No

 Text #1
 ID                                       : 4
 Format                                   : PGS
 Muxing mode                              : zlib
 Codec ID                                 : S_HDMV/PGS
 Codec ID/Info                            : Picture based subtitle format used on BDs/HD-DVDs
 Duration                                 : 1 h 37 min
 Bit rate                                 : 57.5 kb/s
 Count of elements                        : 3597
 Stream size                              : 40.0 MiB (0%)
 Title                                    : English-PGS
 Language                                 : English
 Default                                  : Yes
 Forced                                   : No

 Text #2
 ID                                       : 5
 Format                                   : PGS
 Muxing mode                              : zlib
 Codec ID                                 : S_HDMV/PGS
 Codec ID/Info                            : Picture based subtitle format used on BDs/HD-DVDs
 Duration                                 : 1 h 43 min
 Bit rate                                 : 44.7 kb/s
 Count of elements                        : 3620
 Stream size                              : 33.0 MiB (0%)
 Title                                    : Spanish-PGS
 Language                                 : Spanish
 Default                                  : No
 Forced                                   : No

 Menu
 00:00:00.000                             : en:Chapter 01
 00:05:12.687                             : en:Chapter 02
 00:07:12.765                             : en:Chapter 03
 00:10:15.781                             : en:Chapter 04
 00:13:54.333                             : en:Chapter 05
 00:19:20.659                             : en:Chapter 06
 00:23:15.352                             : en:Chapter 07
 00:31:03.111                             : en:Chapter 08
 00:36:33.482                             : en:Chapter 09
 00:40:16.372                             : en:Chapter 10
 00:44:32.002                             : en:Chapter 11
 00:49:03.774                             : en:Chapter 12
 00:54:06.117                             : en:Chapter 13
 00:59:16.844                             : en:Chapter 14
 01:03:12.914                             : en:Chapter 15
 01:08:07.958                             : en:Chapter 16
 01:15:07.503                             : en:Chapter 17
 01:21:38.935                             : en:Chapter 18
 01:27:31.704                             : en:Chapter 19
 01:36:17.605                             : en:Chapter



Image Image
Image Image

Image

LINKS:

A.Bad.Moms.Christmas.2017.1080p.BluRay.REMUX.AVC.DTS-HD.MA.5.1-FGT.mkv  [26,46 Gb]
A.Bad.Moms.Christmas.2017.1080p.BluRay.REMUX.AVC.DTS-HD.MA.5.1-FGT.nfo  [6,3 Kb]

Legendas: Image
A.Bad.Moms.Christmas.2017.1080p.BluRay.REMUX.AVC.DTS-HD.MA.5.1-FGT.srt  [115,9 Kb]

Todos os horários são GMT - 4 Horas
Powered by phpBB © 2001 phpBB Group