PootzForce Evolution

Filmes Alta Definição / High Definition Movies - [1080p BluRay REMUX] Tyler Perrys Boo 2: A Madea Halloween (2017) *FTG*

lost_rider34 - Dom Mar 04, 2018 11:11 am
Assunto: [1080p BluRay REMUX] Tyler Perrys Boo 2: A Madea Halloween (
Image

Citação:
Madea e a gangue estão de volta para esta sequela hilária. Madea, Bam e Hattie se aventuraram em um acampamento assombrado e o grupo deve literalmente correr por suas vidas quando monstros, goblins e bogeyman são desencadeados.

Madea and the gang are back for this hilarious sequel. Madea, Bam and Hattie venture to a haunted campground and the group must literally run for their lives when monsters, goblins and the bogeyman are unleashed.


[imdb]http://www.imdb.com/title/tt6217804/[/imdb]


Video
 ID                                       : 1
 Format                                   : AVC
 Format/Info                              : Advanced Video Codec
 Format profile                           : High@L4.1
 Format settings                          : CABAC / 4 Ref Frames
 Format settings, CABAC                   : Yes
 Format settings, ReFrames                : 4 frames
 Codec ID                                 : V_MPEG4/ISO/AVC
 Duration                                 : 1 h 40 min
 Bit rate mode                            : Variable
 Bit rate                                 : 19.0 Mb/s
 Maximum bit rate                         : 37.0 Mb/s
 Width                                    : 1 920 pixels
 Height                                   : 1 080 pixels
 Display aspect ratio                     : 16:9
 Frame rate mode                          : Constant
 Frame rate                               : 23.976 (24000/1001) FPS
 Color space                              : YUV
 Chroma subsampling                       : 4:2:0
 Bit depth                                : 8 bits
 Scan type                                : Progressive
 Bits/(Pixel*Frame)                       : 0.382
 Stream size                              : 13.4 GiB (77%)
 Title                                    : Tyler.Perrys.Boo.2.A.Madea.Halloween.2017.1080p.BluRay.REMUX.AVC.DTS-HD.MA.5.1-FGT
 Language                                 : English
 Default                                  : No
 Forced                                   : No

 Audio #1
 ID                                       : 2
 Format                                   : DTS
 Format/Info                              : Digital Theater Systems
 Format profile                           : MA / Core
 Codec ID                                 : A_DTS
 Duration                                 : 1 h 40 min
 Bit rate mode                            : Variable / Constant
 Bit rate                                 : 3 389 kb/s / 1 509 kb/s
 Channel(s)                               : 6 channels
 Channel positions                        : Front: L C R, Side: L R, LFE
 Sampling rate                            : 48.0 kHz
 Frame rate                               : 93.750 FPS (512 SPF)
 Bit depth                                : 24 bits
 Compression mode                         : Lossless / Lossy
 Stream size                              : 2.39 GiB (14%)
 Title                                    : Tyler.Perrys.Boo.2.A.Madea.Halloween.2017.1080p.BluRay.REMUX.AVC.DTS-HD.MA.5.1-FGT
 Language                                 : English
 Default                                  : Yes
 Forced                                   : No

 Audio #2
 ID                                       : 3
 Format                                   : DTS
 Format/Info                              : Digital Theater Systems
 Codec ID                                 : A_DTS
 Duration                                 : 1 h 40 min
 Bit rate mode                            : Constant
 Bit rate                                 : 1 509 kb/s
 Channel(s)                               : 6 channels
 Channel positions                        : Front: L C R, Side: L R, LFE
 Sampling rate                            : 48.0 kHz
 Frame rate                               : 93.750 FPS (512 SPF)
 Bit depth                                : 24 bits
 Compression mode                         : Lossy
 Stream size                              : 1.06 GiB (6%)
 Title                                    : Tyler.Perrys.Boo.2.A.Madea.Halloween.2017.1080p.BluRay.REMUX.AVC.DTS-HD.MA.5.1-FGT
 Language                                 : English
 Default                                  : No
 Forced                                   : No

 Audio #3
 ID                                       : 4
 Format                                   : AC-3
 Format/Info                              : Audio Coding 3
 Codec ID                                 : A_AC3
 Duration                                 : 1 h 40 min
 Bit rate mode                            : Constant
 Bit rate                                 : 448 kb/s
 Channel(s)                               : 6 channels
 Channel positions                        : Front: L C R, Side: L R, LFE
 Sampling rate                            : 48.0 kHz
 Frame rate                               : 31.250 FPS (1536 SPF)
 Bit depth                                : 16 bits
 Compression mode                         : Lossy
 Stream size                              : 324 MiB (2%)
 Title                                    : Tyler.Perrys.Boo.2.A.Madea.Halloween.2017.1080p.BluRay.REMUX.AVC.DTS-HD.MA.5.1-FGT
 Language                                 : Spanish
 Service kind                             : Complete Main
 Default                                  : No
 Forced                                   : No

 Audio #4
 ID                                       : 5
 Format                                   : AC-3
 Format/Info                              : Audio Coding 3
 Codec ID                                 : A_AC3
 Duration                                 : 1 h 40 min
 Bit rate mode                            : Constant
 Bit rate                                 : 224 kb/s
 Channel(s)                               : 2 channels
 Channel positions                        : Front: L R
 Sampling rate                            : 48.0 kHz
 Frame rate                               : 31.250 FPS (1536 SPF)
 Bit depth                                : 16 bits
 Compression mode                         : Lossy
 Stream size                              : 162 MiB (1%)
 Title                                    : Tyler.Perrys.Boo.2.A.Madea.Halloween.2017.1080p.BluRay.REMUX.AVC.DTS-HD.MA.5.1-FGT
 Language                                 : English
 Service kind                             : Complete Main
 Default                                  : No
 Forced                                   : No

 Text #1
 ID                                       : 6
 Format                                   : PGS
 Muxing mode                              : zlib
 Codec ID                                 : S_HDMV/PGS
 Codec ID/Info                            : Picture based subtitle format used on BDs/HD-DVDs
 Duration                                 : 1 h 40 min
 Bit rate                                 : 80.1 kb/s
 Count of elements                        : 5085
 Stream size                              : 57.5 MiB (0%)
 Title                                    : English-PGS
 Language                                 : English
 Default                                  : Yes
 Forced                                   : No

 Text #2
 ID                                       : 7
 Format                                   : PGS
 Muxing mode                              : zlib
 Codec ID                                 : S_HDMV/PGS
 Codec ID/Info                            : Picture based subtitle format used on BDs/HD-DVDs
 Duration                                 : 1 h 32 min
 Bit rate                                 : 64.4 kb/s
 Count of elements                        : 4038
 Stream size                              : 42.7 MiB (0%)
 Title                                    : Spanish-PGS
 Language                                 : Spanish
 Default                                  : No
 Forced                                   : No

 Text #3
 ID                                       : 8
 Format                                   : PGS
 Muxing mode                              : zlib
 Codec ID                                 : S_HDMV/PGS
 Codec ID/Info                            : Picture based subtitle format used on BDs/HD-DVDs
 Duration                                 : 11 s 949 ms
 Bit rate                                 : 43.9 kb/s
 Count of elements                        : 4
 Stream size                              : 64.0 KiB (0%)
 Title                                    : Spanish-FORCED-PGS
 Language                                 : Spanish
 Default                                  : No
 Forced                                   : No

 Menu
 00:00:00.000                             : en:Chapter 01
 00:05:44.761                             : en:Chapter 02
 00:11:32.566                             : en:Chapter 03
 00:18:08.837                             : en:Chapter 04
 00:23:46.925                             : en:Chapter 05
 00:31:24.424                             : en:Chapter 06
 00:37:38.631                             : en:Chapter 07
 00:44:37.132                             : en:Chapter 08
 00:51:59.866                             : en:Chapter 09
 00:57:43.168                             : en:Chapter 10
 00:59:53.464                             : en:Chapter 11
 01:04:36.581                             : en:Chapter 12
 01:08:27.353                             : en:Chapter 13
 01:15:04.500                             : en:Chapter 14
 01:19:55.874                             : en:Chapter 15
 01:25:47.892                             : en:Chapter 16


Image Image
Image Image

Image

LINKS:

Tyler.Perrys.Boo.2.A.Madea.Halloween.2017.1080p.BluRay.REMUX.AVC.DTS-HD.MA.5.1-FGT.mkv  [17,38 Gb]
Tyler.Perrys.Boo.2.A.Madea.Halloween.2017.1080p.BluRay.REMUX.AVC.DTS-HD.MA.5.1-FGT.nfo  [9,0 Kb]

Legendas: Image
Tyler.Perrys.Boo.2.A.Madea.Halloween.2017.1080p.BluRay.REMUX.AVC.DTS-HD.MA.5.1-FGT.srt  [160,4 Kb]

Todos os horários são GMT - 4 Horas
Powered by phpBB © 2001 phpBB Group