PootzForce Evolution

Filmes Alta Definição / High Definition Movies - [1080p BluRay REMUX] The Killing of a Sacred Deer (2017) *FTG*

lost_rider34 - Dom Mar 04, 2018 10:14 am
Assunto: [1080p BluRay REMUX] The Killing of a Sacred Deer (2017) *FT
Image


Citação:
Steven (Colin Farrell) é um cardiologista conceituado que é casado com Anna (Nicole Kidman), com quem tem dois filhos: Kim (Raffey Cassidy) e Bob (Sunny Suljic). Já há algum tempo ele mantém contato frequente com Martin (Barry Keoghan), um adolescente cujo pai morreu na mesa de operação, justamente quando era operado por Steven. Ele gosta bastante do garoto, tanto que lhe dá presentes e decide apresentá-lo à família. Entretanto, quando o jovem não recebe mais a atenção de antigamente, decide elaborar um plano de vingança.

Dr. Steven Murphy (Colin Farrell) is a renowned cardiovascular surgeon presiding over a spotless household with his ophthalmologist wife Anna (Nicole Kidman) and their two exemplary children, 12-year-old Bob (Sunny Suljic) and 14-year-old Kim (Raffey Cassidy). Lurking at the margins of his idyllic suburban existence is Martin (Barry Keoghan), a fatherless teen who Steven has covertly taken under his wing. As Martin begins insinuating himself into the family's life in ever-more unsettling displays, the full scope of his intent becomes menacingly clear when he confronts Steven with a long-forgotten transgression that will shatter the Murphy family's domestic bliss.


[imdb]http://www.imdb.com/title/tt5715874/[/imdb]

Video
 ID                                       : 1
 Format                                   : AVC
 Format/Info                              : Advanced Video Codec
 Format profile                           : High@L4.1
 Format settings                          : CABAC / 4 Ref Frames
 Format settings, CABAC                   : Yes
 Format settings, ReFrames                : 4 frames
 Codec ID                                 : V_MPEG4/ISO/AVC
 Duration                                 : 2 h 1 min
 Bit rate mode                            : Variable
 Bit rate                                 : 34.5 Mb/s
 Maximum bit rate                         : 37.0 Mb/s
 Width                                    : 1 920 pixels
 Height                                   : 1 080 pixels
 Display aspect ratio                     : 16:9
 Frame rate mode                          : Constant
 Frame rate                               : 23.976 (24000/1001) FPS
 Color space                              : YUV
 Chroma subsampling                       : 4:2:0
 Bit depth                                : 8 bits
 Scan type                                : Progressive
 Bits/(Pixel*Frame)                       : 0.695
 Stream size                              : 29.2 GiB (87%)
 Title                                    : The.Killing.Of.A.Sacred.Deer.2017.1080p.BluRay.REMUX.AVC.DTS-HD.MA.5.1-FGT
 Language                                 : English
 Default                                  : No
 Forced                                   : No

 Audio #1
 ID                                       : 2
 Format                                   : DTS
 Format/Info                              : Digital Theater Systems
 Format profile                           : MA / Core
 Codec ID                                 : A_DTS
 Duration                                 : 2 h 1 min
 Bit rate mode                            : Variable / Constant
 Bit rate                                 : 3 390 kb/s / 1 509 kb/s
 Channel(s)                               : 6 channels
 Channel positions                        : Front: L C R, Side: L R, LFE
 Sampling rate                            : 48.0 kHz
 Frame rate                               : 93.750 FPS (512 SPF)
 Bit depth                                : 24 bits
 Compression mode                         : Lossless / Lossy
 Stream size                              : 2.87 GiB (9%)
 Title                                    : The.Killing.Of.A.Sacred.Deer.2017.1080p.BluRay.REMUX.AVC.DTS-HD.MA.5.1-FGT
 Language                                 : English
 Default                                  : Yes
 Forced                                   : No

 Audio #2
 ID                                       : 3
 Format                                   : DTS
 Format/Info                              : Digital Theater Systems
 Codec ID                                 : A_DTS
 Duration                                 : 2 h 1 min
 Bit rate mode                            : Constant
 Bit rate                                 : 1 509 kb/s
 Channel(s)                               : 6 channels
 Channel positions                        : Front: L C R, Side: L R, LFE
 Sampling rate                            : 48.0 kHz
 Frame rate                               : 93.750 FPS (512 SPF)
 Bit depth                                : 24 bits
 Compression mode                         : Lossy
 Stream size                              : 1.28 GiB (4%)
 Title                                    : The.Killing.Of.A.Sacred.Deer.2017.1080p.BluRay.REMUX.AVC.DTS-HD.MA.5.1-FGT
 Language                                 : English
 Default                                  : No
 Forced                                   : No

 Text #1
 ID                                       : 4
 Format                                   : PGS
 Muxing mode                              : zlib
 Codec ID                                 : S_HDMV/PGS
 Codec ID/Info                            : Picture based subtitle format used on BDs/HD-DVDs
 Duration                                 : 1 h 54 min
 Bit rate                                 : 46.3 kb/s
 Count of elements                        : 2840
 Stream size                              : 37.9 MiB (0%)
 Title                                    : English-PGS
 Language                                 : English
 Default                                  : Yes
 Forced                                   : No

 Text #2
 ID                                       : 5
 Format                                   : PGS
 Muxing mode                              : zlib
 Codec ID                                 : S_HDMV/PGS
 Codec ID/Info                            : Picture based subtitle format used on BDs/HD-DVDs
 Duration                                 : 1 h 46 min
 Bit rate                                 : 37.0 kb/s
 Count of elements                        : 2345
 Stream size                              : 28.3 MiB (0%)
 Title                                    : Spanish-PGS
 Language                                 : Spanish
 Default                                  : No
 Forced                                   : No

 Menu
 00:00:00.000                             : en:Chapter 01
 00:07:03.131                             : en:Chapter 02
 00:14:38.794                             : en:Chapter 03
 00:22:29.806                             : en:Chapter 04
 00:31:16.916                             : en:Chapter 05
 00:38:06.367                             : en:Chapter 06
 00:45:53.208                             : en:Chapter 07
 00:51:18.492                             : en:Chapter 08
 01:00:25.913                             : en:Chapter 09
 01:07:06.522                             : en:Chapter 10
 01:16:36.883                             : en:Chapter 11
 01:25:07.769                             : en:Chapter 12
 01:30:27.422                             : en:Chapter 13
 01:36:43.297                             : en:Chapter 14
 01:44:07.950                             : en:Chapter 15
 01:53:50.532                             : en:Chapter 16



Image Image
Image Image

Image

LINKS:

The.Killing.Of.A.Sacred.Deer.2017.1080p.BluRay.REMUX.AVC.DTS-HD.MA.5.1-FGT.mkv  [33,37 Gb]
The.Killing.Of.A.Sacred.Deer.2017.1080p.BluRay.REMUX.AVC.DTS-HD.MA.5.1-FGT.nfo  [6,1 Kb]

Legendas: Image
The.Killing.Of.A.Sacred.Deer.2017.1080p.BluRay.REMUX.AVC.DTS-HD.MA.5.1-FGT.srt  [103,2 Kb]

Todos os horários são GMT - 4 Horas
Powered by phpBB © 2001 phpBB Group