PootzForce Evolution

Filmes Alta Definição / High Definition Movies - [1080p BluRay REMUX] Sweet Virginia (2017) *FGT*

lost_rider34 - Dom Mar 04, 2018 10:17 am
Assunto: [1080p BluRay REMUX] Sweet Virginia (2017) *FGT*
Image

Citação:
O dono de um motel com um passado sinistro (Jon Bernthal), sem saber, faz amizade com um jovem assassino (Christopher Abbott) responsável por uma onda de violência que, de repente tomou conta de uma pequena cidade.

A mysterious stranger sends shockwaves through a close-knit community in this nerve-jangling slice of raw suspense. In the wake of a triple murder that leaves the residents of a remote Alaskan outpost on edge, tightly wound drifter Elwood (Christopher Abbott) checks into a motel run by Sam (Jon Bernthal), a former rodeo champion whose imposing physical presence conceals a troubled soul. Bound together by their outsider status, the two men strike up an uneasy friendship-a dangerous association that will set off a new wave of violence and unleash Sam's darkest demons. Driven by tour de force performances from Christopher Abbott and Jon Bernthal, this precision crafted thriller pulses with an air of quivering dread. With Imogen Poots and Rosemarie Dewitt.


[imdb]http://www.imdb.com/title/tt2582498/[/imdb]


Video
 ID                                       : 1
 Format                                   : AVC
 Format/Info                              : Advanced Video Codec
 Format profile                           : High@L4.1
 Format settings                          : CABAC / 4 Ref Frames
 Format settings, CABAC                   : Yes
 Format settings, ReFrames                : 4 frames
 Codec ID                                 : V_MPEG4/ISO/AVC
 Duration                                 : 1 h 33 min
 Bit rate mode                            : Variable
 Bit rate                                 : 20.9 Mb/s
 Maximum bit rate                         : 36.0 Mb/s
 Width                                    : 1 920 pixels
 Height                                   : 1 080 pixels
 Display aspect ratio                     : 16:9
 Frame rate mode                          : Constant
 Frame rate                               : 23.976 (24000/1001) FPS
 Color space                              : YUV
 Chroma subsampling                       : 4:2:0
 Bit depth                                : 8 bits
 Scan type                                : Progressive
 Bits/(Pixel*Frame)                       : 0.420
 Stream size                              : 13.6 GiB (82%)
 Title                                    : Sweet.Virginia.2017.1080p.BluRay.REMUX.AVC.DTS-HD.MA.5.1-FGT
 Language                                 : English
 Default                                  : No
 Forced                                   : No

 Audio #1
 ID                                       : 2
 Format                                   : DTS
 Format/Info                              : Digital Theater Systems
 Format profile                           : MA / Core
 Codec ID                                 : A_DTS
 Duration                                 : 1 h 33 min
 Bit rate mode                            : Variable / Constant
 Bit rate                                 : 3 201 kb/s / 1 509 kb/s
 Channel(s)                               : 6 channels
 Channel positions                        : Front: L C R, Side: L R, LFE
 Sampling rate                            : 48.0 kHz
 Frame rate                               : 93.750 FPS (512 SPF)
 Bit depth                                : 24 bits
 Compression mode                         : Lossless / Lossy
 Stream size                              : 2.08 GiB (13%)
 Title                                    : Sweet.Virginia.2017.1080p.BluRay.REMUX.AVC.DTS-HD.MA.5.1-FGT
 Language                                 : English
 Default                                  : Yes
 Forced                                   : No

 Audio #2
 ID                                       : 3
 Format                                   : DTS
 Format/Info                              : Digital Theater Systems
 Codec ID                                 : A_DTS
 Duration                                 : 1 h 33 min
 Bit rate mode                            : Constant
 Bit rate                                 : 1 509 kb/s
 Channel(s)                               : 6 channels
 Channel positions                        : Front: L C R, Side: L R, LFE
 Sampling rate                            : 48.0 kHz
 Frame rate                               : 93.750 FPS (512 SPF)
 Bit depth                                : 24 bits
 Compression mode                         : Lossy
 Stream size                              : 1 006 MiB (6%)
 Title                                    : Sweet.Virginia.2017.1080p.BluRay.REMUX.AVC.DTS-HD.MA.5.1-FGT
 Language                                 : English
 Default                                  : No
 Forced                                   : No

 Menu
 00:00:00.000                             : en:Chapter 01
 00:10:28.669                             : en:Chapter 02
 00:20:05.871                             : en:Chapter 03
 00:30:09.974                             : en:Chapter 04
 00:38:43.446                             : en:Chapter 05
 00:47:37.855                             : en:Chapter 06
 00:55:57.103                             : en:Chapter 07
 01:05:31.469                             : en:Chapter 08
 01:14:27.880                             : en:Chapter 09
 01:19:20.964                             : en:Chapter 10
 01:28:48.323                             : en:Chapter 11


Image Image
Image Image

Image

LINKS:

Sweet.Virginia.2017.1080p.BluRay.REMUX.AVC.DTS-HD.MA.5.1-FGT.mkv  [16,67 Gb]
Sweet.Virginia.2017.1080p.BluRay.REMUX.AVC.DTS-HD.MA.5.1-FGT.nfo  [4,3 Kb]

Legendas: Image
Sweet.Virginia.2017.1080p.BluRay.REMUX.AVC.DTS-HD.MA.5.1-FGT.srt  [51,1 Kb]

Todos os horários são GMT - 4 Horas
Powered by phpBB © 2001 phpBB Group