PootzForce Evolution

Filmes Alta Definição / High Definition Movies - [1080p BluRay REMUX] Professor Marston and the Wonder Women (2017) *FTG*

lost_rider34 - Dom Mar 04, 2018 11:21 am
Assunto: [1080p BluRay REMUX] Professor Marston and the Wonder Women
Image


Citação:
A não-convencional vida de Wiliam Marston (Luke Evans), psicólogo e inventor de Harvard que ajudou a tornar real o Detector de Mentiras e que também criou a Mulher-Maravilha, personagem dos quadrinhos, em 1941. Marston mantinha uma relação polígama envolvendo sua esposa Elizabeth Marston (Rebecca Hall), psicóloga e inventora, e Olive Byrne (Bella Heathcote), uma ex-aluna que virou acadêmica. Essa relação e os ideais feministas das duas mulheres foram essenciais para a criação da personagem.

In a superhero origin tale unlike any other, the film is the incredible true story of what inspired Harvard psychologist Dr. William Moulton Marston to create the iconic Wonder Woman character in the 1940's. While Marston's feminist superhero was criticized by censors for her 'sexual perversity', he was keeping a secret that could have destroyed him. Marston's muses for the Wonder Woman character were his wife Elizabeth Marston and their lover Olive Byrne, two empowered women who defied convention: working with Marston on human behavior research -- while building a hidden life with him that rivaled the greatest of superhero disguises.


[imdb]http://www.imdb.com/title/tt6133130/[/imdb]


Video
 ID                                       : 1
 Format                                   : AVC
 Format/Info                              : Advanced Video Codec
 Format profile                           : High@L4.1
 Format settings                          : CABAC / 2 Ref Frames
 Format settings, CABAC                   : Yes
 Format settings, ReFrames                : 2 frames
 Codec ID                                 : V_MPEG4/ISO/AVC
 Duration                                 : 1 h 48 min
 Bit rate mode                            : Variable
 Bit rate                                 : 26.9 Mb/s
 Width                                    : 1 920 pixels
 Height                                   : 1 080 pixels
 Display aspect ratio                     : 16:9
 Frame rate mode                          : Constant
 Frame rate                               : 23.976 (24000/1001) FPS
 Color space                              : YUV
 Chroma subsampling                       : 4:2:0
 Bit depth                                : 8 bits
 Scan type                                : Progressive
 Bits/(Pixel*Frame)                       : 0.540
 Stream size                              : 20.4 GiB (85%)
 Title                                    : Professor.Marston.and.the.Wonder.Women.2017.1080p.BluRay.REMUX.AVC.DTS-HD.MA.5.1-FGT
 Language                                 : English
 Default                                  : No
 Forced                                   : No

 Audio #1
 ID                                       : 2
 Format                                   : DTS
 Format/Info                              : Digital Theater Systems
 Format profile                           : MA / Core
 Codec ID                                 : A_DTS
 Duration                                 : 1 h 48 min
 Bit rate mode                            : Variable / Constant
 Bit rate                                 : 3 155 kb/s / 1 509 kb/s
 Channel(s)                               : 6 channels
 Channel positions                        : Front: L C R, Side: L R, LFE
 Sampling rate                            : 48.0 kHz
 Frame rate                               : 93.750 FPS (512 SPF)
 Bit depth                                : 24 bits
 Compression mode                         : Lossless / Lossy
 Stream size                              : 2.39 GiB (10%)
 Title                                    : Professor.Marston.and.the.Wonder.Women.2017.1080p.BluRay.REMUX.AVC.DTS-HD.MA.5.1-FGT
 Language                                 : English
 Default                                  : Yes
 Forced                                   : No

 Audio #2
 ID                                       : 3
 Format                                   : DTS
 Format/Info                              : Digital Theater Systems
 Codec ID                                 : A_DTS
 Duration                                 : 1 h 48 min
 Bit rate mode                            : Constant
 Bit rate                                 : 1 509 kb/s
 Channel(s)                               : 6 channels
 Channel positions                        : Front: L C R, Side: L R, LFE
 Sampling rate                            : 48.0 kHz
 Frame rate                               : 93.750 FPS (512 SPF)
 Bit depth                                : 24 bits
 Compression mode                         : Lossy
 Stream size                              : 1.14 GiB (5%)
 Title                                    : Professor.Marston.and.the.Wonder.Women.2017.1080p.BluRay.REMUX.AVC.DTS-HD.MA.5.1-FGT
 Language                                 : English
 Default                                  : No
 Forced                                   : No

 Text #1
 ID                                       : 4
 Format                                   : PGS
 Muxing mode                              : zlib
 Codec ID                                 : S_HDMV/PGS
 Codec ID/Info                            : Picture based subtitle format used on BDs/HD-DVDs
 Duration                                 : 1 h 45 min
 Bit rate                                 : 32.8 kb/s
 Count of elements                        : 2619
 Stream size                              : 24.7 MiB (0%)
 Title                                    : English-PGS
 Language                                 : English
 Default                                  : Yes
 Forced                                   : No

 Text #2
 ID                                       : 5
 Format                                   : PGS
 Muxing mode                              : zlib
 Codec ID                                 : S_HDMV/PGS
 Codec ID/Info                            : Picture based subtitle format used on BDs/HD-DVDs
 Duration                                 : 1 h 41 min
 Bit rate                                 : 29.9 kb/s
 Count of elements                        : 2180
 Stream size                              : 21.6 MiB (0%)
 Title                                    : English-SDH-PGS
 Language                                 : English
 Default                                  : No
 Forced                                   : No

 Menu
 00:00:00.000                             : en:Chapter 01
 00:07:48.176                             : en:Chapter 02
 00:15:25.841                             : en:Chapter 03
 00:21:42.634                             : en:Chapter 04
 00:29:05.577                             : en:Chapter 05
 00:33:03.147                             : en:Chapter 06
 00:39:15.561                             : en:Chapter 07
 00:46:07.055                             : en:Chapter 08
 00:51:06.480                             : en:Chapter 09
 00:57:12.429                             : en:Chapter 10
 01:03:03.738                             : en:Chapter 11
 01:09:11.147                             : en:Chapter 12
 01:14:45.898                             : en:Chapter 13
 01:20:18.438                             : en:Chapter 14
 01:26:24.220                             : en:Chapter 15
 01:34:09.727                             : en:Chapter 16



Image Image
Image Image

Image

LINKS:

Professor.Marston.and.the.Wonder.Women.2017.1080p.BluRay.REMUX.AVC.DTS-HD.MA.5.1-FGT.mkv  [23,91 Gb]
Professor.Marston.and.the.Wonder.Women.2017.1080p.BluRay.REMUX.AVC.DTS-HD.MA.5.1-FGT.nfo  [6,1 Kb]

Legendas: Image
Professor.Marston.and.the.Wonder.Women.2017.1080p.BluRay.REMUX.AVC.DTS-HD.MA.5.1-FGT.srt  [80,9 Kb]

Todos os horários são GMT - 4 Horas
Powered by phpBB © 2001 phpBB Group