PootzForce Evolution

Filmes Alta Definição / High Definition Movies - [1080p BluRay REMUX] Jeepers Creepers 3 (2017) *FGT*

lost_rider34 - Sex Abr 06, 2018 2:36 pm
Assunto: [1080p BluRay REMUX] Jeepers Creepers 3 (2017) *FGT*
Image

Citação:
No último dia de alimentação de vinte e três dias do Creeper, as equipes policiais do Sargento Tubbs reúnem uma força-tarefa, na missão de destruir o Creeper para sempre. O Creeper trava uma batalha sangrenta enquanto seus inimigos se aproximam de descobrir o segredo de suas origens sombrias.

This September, The Creeper returns. Be the first to see the next film in the iconic horror franchise when Jeepers Creepers 3 premieres in movie theatres nationwide for only one night on Tuesday, September 26. On the last day of the Creeper's twenty-three day feeding frenzy, skeptical Sargent Tubbs teams up with a task force hell bent on destroying the Creeper for good. The Creeper fights back in gory glory as its enemies grow closer than ever before to learning the secret of its dark origins. This exclusive one-night event also features never-before-seen bonus footage and an interview with Jonathan Breck, who plays The Creeper in all three films in the franchise.


[imdb]http://www.imdb.com/title/tt1139592/[/imdb]


Video
 ID                                       : 1
 Format                                   : AVC
 Format/Info                              : Advanced Video Codec
 Format profile                           : High@L4.1
 Format settings                          : CABAC / 4 Ref Frames
 Format settings, CABAC                   : Yes
 Format settings, ReFrames                : 4 frames
 Codec ID                                 : V_MPEG4/ISO/AVC
 Duration                                 : 1 h 41 min
 Bit rate mode                            : Variable
 Maximum bit rate                         : 38.0 Mb/s
 Width                                    : 1 920 pixels
 Height                                   : 1 080 pixels
 Display aspect ratio                     : 16:9
 Frame rate mode                          : Constant
 Frame rate                               : 23.976 (24000/1001) FPS
 Color space                              : YUV
 Chroma subsampling                       : 4:2:0
 Bit depth                                : 8 bits
 Scan type                                : Progressive
 Title                                    : Jeepers.Creepers.3.2017.1080p.BluRay.REMUX.AVC.DTS-HD.MA.5.1-FGT
 Language                                 : English
 Default                                  : No
 Forced                                   : No

 Audio #1
 ID                                       : 2
 Format                                   : DTS
 Format/Info                              : Digital Theater Systems
 Format profile                           : MA / Core
 Codec ID                                 : A_DTS
 Duration                                 : 1 h 41 min
 Bit rate mode                            : Variable / Constant
 Bit rate                                 : Unknown / 1 509 kb/s
 Channel(s)                               : 6 channels
 Channel positions                        : Front: L C R, Side: L R, LFE
 Sampling rate                            : 48.0 kHz
 Frame rate                               : 93.750 FPS (512 SPF)
 Bit depth                                : 16 bits
 Compression mode                         : Lossless / Lossy
 Title                                    : Jeepers.Creepers.3.2017.1080p.BluRay.REMUX.AVC.DTS-HD.MA.5.1-FGT
 Language                                 : English
 Default                                  : Yes
 Forced                                   : No

 Audio #2
 ID                                       : 3
 Format                                   : DTS
 Format/Info                              : Digital Theater Systems
 Codec ID                                 : A_DTS
 Duration                                 : 1 h 41 min
 Bit rate mode                            : Constant
 Bit rate                                 : 1 509 kb/s
 Channel(s)                               : 6 channels
 Channel positions                        : Front: L C R, Side: L R, LFE
 Sampling rate                            : 48.0 kHz
 Frame rate                               : 93.750 FPS (512 SPF)
 Bit depth                                : 16 bits
 Compression mode                         : Lossy
 Stream size                              : 1.07 GiB (5%)
 Title                                    : Jeepers.Creepers.3.2017.1080p.BluRay.REMUX.AVC.DTS-HD.MA.5.1-FGT
 Language                                 : English
 Default                                  : No
 Forced                                   : No

 Audio #3
 ID                                       : 4
 Format                                   : DTS
 Format/Info                              : Digital Theater Systems
 Format profile                           : MA / Core
 Codec ID                                 : A_DTS
 Duration                                 : 1 h 41 min
 Bit rate mode                            : Variable / Constant
 Bit rate                                 : Unknown / 255 kb/s
 Channel(s)                               : 2 channels
 Channel positions                        :  / Front: L R
 Sampling rate                            : 48.0 kHz
 Frame rate                               : 93.750 FPS (512 SPF)
 Bit depth                                : 16 bits
 Compression mode                         : Lossless / Lossy
 Title                                    : Jeepers.Creepers.3.2017.1080p.BluRay.REMUX.AVC.DTS-HD.MA.5.1-FGT
 Language                                 : English
 Default                                  : No
 Forced                                   : No

 Audio #4
 ID                                       : 5
 Format                                   : DTS
 Format/Info                              : Digital Theater Systems
 Codec ID                                 : A_DTS
 Duration                                 : 1 h 41 min
 Bit rate mode                            : Constant
 Bit rate                                 : 255 kb/s
 Channel(s)                               : 2 channels
 Channel positions                        : Front: L R
 Sampling rate                            : 48.0 kHz
 Frame rate                               : 93.750 FPS (512 SPF)
 Bit depth                                : 16 bits
 Compression mode                         : Lossy
 Stream size                              : 185 MiB (1%)
 Title                                    : Jeepers.Creepers.3.2017.1080p.BluRay.REMUX.AVC.DTS-HD.MA.5.1-FGT
 Language                                 : English
 Default                                  : No
 Forced                                   : No

 Text #1
 ID                                       : 6
 Format                                   : PGS
 Muxing mode                              : zlib
 Codec ID                                 : S_HDMV/PGS
 Codec ID/Info                            : Picture based subtitle format used on BDs/HD-DVDs
 Title                                    : English-PGS
 Language                                 : English
 Default                                  : No
 Forced                                   : No

 Text #2
 ID                                       : 7
 Format                                   : PGS
 Muxing mode                              : zlib
 Codec ID                                 : S_HDMV/PGS
 Codec ID/Info                            : Picture based subtitle format used on BDs/HD-DVDs
 Title                                    : Spanish-PGS
 Language                                 : Spanish
 Default                                  : No
 Forced                                   : No

 Menu
 00:00:00.000                             : en:Chapter 01
 00:14:29.952                             : en:Chapter 02
 00:23:59.896                             : en:Chapter 03
 00:34:26.606                             : en:Chapter 04
 00:40:37.226                             : en:Chapter 05
 00:47:02.277                             : en:Chapter 06
 00:56:04.402                             : en:Chapter 07
 01:03:25.134                             : en:Chapter 08
 01:11:02.466                             : en:Chapter 09
 01:21:46.902                             : en:Chapter 10
 01:27:16.689                             : en:Chapter 11
 01:34:43.552                             : en:Chapter 12


Image Image
Image Image

Image

LNKS:

Jeepers.Creepers.III.2017.1080p.BluRay.x264-DRONES.mkv  [7,65 Gb]
Jeepers.Creepers.III.2017.1080p.BluRay.x264-DRONES.nfo  [7,2 Kb]

Legendas: Image
Jeepers.Creepers.III.2017.1080p.BluRay.x264-DRONES.srt  [52,6 Kb]

cesar666 - Sex Abr 06, 2018 9:53 pm
Assunto:
Shocked valeu, obrigado!!!
cesar666 - Sex Abr 06, 2018 9:53 pm
Assunto:
Shocked valeu, obrigado!!!
Todos os horários são GMT - 4 Horas
Powered by phpBB © 2001 phpBB Group