PootzForce Evolution

Filmes Alta Definição / High Definition Movies - [1080p BluRay DTS] The Crucifixion (2017) *MT*

lost_rider34 - Sex Abr 06, 2018 2:42 pm
Assunto: [1080p BluRay DTS] The Crucifixion (2017) *MT*
Image

Citação:
"Exorcismos e Demônios" é baseado na história real de um padre sentenciado à prisão após a morte de uma freira em que praticou um exorcismo. Uma jornalista investigativa se esforça para desvendar se de fato ele assassinou uma pessoa mentalmente doente ou se perdeu uma batalha contra uma força demoníaca.

When a priest is jailed for the murder of a nun on whom he was performing an exorcism, an investigative journalist strives to determine whether he in fact murdered a mentally ill person, or if he actually lost the battle with a demonic presence.


[imdb]http://www.imdb.com/title/tt4181782/[/imdb]


Video
 ID                                       : 1
 Format                                   : AVC
 Format/Info                              : Advanced Video Codec
 Format profile                           : High@L4.1
 Format settings                          : CABAC / 5 Ref Frames
 Format settings, CABAC                   : Yes
 Format settings, ReFrames                : 5 frames
 Codec ID                                 : V_MPEG4/ISO/AVC
 Duration                                 : 1 h 29 min
 Bit rate                                 : 15.5 Mb/s
 Width                                    : 1 920 pixels
 Height                                   : 804 pixels
 Display aspect ratio                     : 2.40:1
 Frame rate mode                          : Constant
 Frame rate                               : 23.976 (24000/1001) FPS
 Color space                              : YUV
 Chroma subsampling                       : 4:2:0
 Bit depth                                : 8 bits
 Scan type                                : Progressive
 Bits/(Pixel*Frame)                       : 0.419
 Stream size                              : 9.74 GiB (89%)
 Language                                 : English
 Default                                  : Yes
 Forced                                   : No

 Audio
 ID                                       : 2
 Format                                   : DTS
 Format/Info                              : Digital Theater Systems
 Codec ID                                 : A_DTS
 Duration                                 : 1 h 29 min
 Bit rate mode                            : Constant
 Bit rate                                 : 1 509 kb/s
 Channel(s)                               : 6 channels
 Channel positions                        : Front: L C R, Side: L R, LFE
 Sampling rate                            : 48.0 kHz
 Frame rate                               : 93.750 FPS (512 SPF)
 Bit depth                                : 24 bits
 Compression mode                         : Lossy
 Stream size                              : 970 MiB (9%)
 Language                                 : English
 Default                                  : Yes
 Forced                                   : No


Image Image
Image Image

Image

LINKS:

The.Crucifixion.2017.1080p.BluRay.x264.DTS-MT.mkv  [10,91 Gb]

Legendas: Image
The.Crucifixion.2017.1080p.BluRay.x264.DTS-MT.srt  [54,7 Kb]

Todos os horários são GMT - 4 Horas
Powered by phpBB © 2001 phpBB Group