PootzForce Evolution

Filmes Alta Definição / High Definition Movies - [1080p BluRay REMUX] Mary Magdalene (2018) - FGT

lost_rider34 - Sex Jul 06, 2018 10:35 am
Assunto: [1080p BluRay REMUX] Mary Magdalene (2018) - FGT
Image

https://www.imdb.com/title/tt5360996/

Citação:
A história de uma das figuras mais enigmáticas e incompreendidas da história bíblica: Maria Madalena (Rooney Mara). Em busca de uma nova maneira de viver, contrariando a sociedade, sua familia tradicional e o machismo de alguns apóstolos, a jovem junta-se a Jesus de Nazaré (Joaquin Phoenix) em sua incansável missão de propagar a fé.

Set in the Holy Land in the first century C.E., a young woman leaves her small fishing village and traditional family behind to join a radical new social movement. At its head is a charismatic leader, Jesus of Nazareth, who promises that the world is changing. Mary is searching for a new way of living, and an authenticity that is denied her by the rigid hierarchies of the day. As the notoriety of the group spread and more are drawn to follow Jesus' inspirational message, Mary's spiritual journey places her at the heart of a story that will lead to the capital city of Jerusalem, where she must confront the reality of Jesus' destiny and her own place within it.



Video
 ID : 1
 Format : AVC
 Format/Info : Advanced Video Codec
 Format profile : High@L4.1
 Format settings : CABAC / 4 Ref Frames
 Format settings, CABAC : Yes
 Format settings, ReFrames : 4 frames
 Format settings, GOP : M=3, N=12
 Codec ID : V_MPEG4/ISO/AVC
 Duration : 1 h 59 min
 Bit rate mode : Variable
 Bit rate : 31.0 Mb/s
 Maximum bit rate : 34.0 Mb/s
 Width : 1 920 pixels
 Height : 1 080 pixels
 Display aspect ratio : 16:9
 Frame rate mode : Constant
 Frame rate : 23.976 (24000/1001) FPS
 Color space : YUV
 Chroma subsampling : 4:2:0
 Bit depth : 8 bits
 Scan type : Progressive
 Bits/(Pixel*Frame) : 0.623
 Stream size : 25.9 GiB (78%)
 Title : Mary.Magdalene.2018.1080p.BluRay.REMUX.AVC.DTS-HD.MA.5.1-FGT
 Language : English
 Default : No
 Forced : No

 Audio #1
 ID : 2
 Format : DTS
 Format/Info : Digital Theater Systems
 Format profile : MA / Core
 Codec ID : A_DTS
 Duration : 1 h 59 min
 Bit rate mode : Variable / Constant
 Bit rate : 3 629 kb/s / 1 509 kb/s
 Channel(s) : 6 channels
 Channel positions : Front: L C R, Side: L R, LFE
 Sampling rate : 48.0 kHz
 Frame rate : 93.750 FPS (512 SPF)
 Bit depth : 24 bits
 Compression mode : Lossless / Lossy
 Stream size : 3.04 GiB (9%)
 Title : Mary.Magdalene.2018.1080p.BluRay.REMUX.AVC.DTS-HD.MA.5.1-FGT
 Language : English
 Default : Yes
 Forced : No

 Audio #2
 ID : 3
 Format : DTS
 Format/Info : Digital Theater Systems
 Codec ID : A_DTS
 Duration : 1 h 59 min
 Bit rate mode : Constant
 Bit rate : 1 509 kb/s
 Channel(s) : 6 channels
 Channel positions : Front: L C R, Side: L R, LFE
 Sampling rate : 48.0 kHz
 Frame rate : 93.750 FPS (512 SPF)
 Bit depth : 24 bits
 Compression mode : Lossy
 Stream size : 1.26 GiB (4%)
 Title : Mary.Magdalene.2018.1080p.BluRay.REMUX.AVC.DTS-HD.MA.5.1-FGT
 Language : English
 Default : No
 Forced : No

 Audio #3
 ID : 4
 Format : DTS
 Format/Info : Digital Theater Systems
 Codec ID : A_DTS
 Duration : 1 h 59 min
 Bit rate mode : Constant
 Bit rate : 768 kb/s
 Channel(s) : 6 channels
 Channel positions : Front: L C R, Side: L R, LFE
 Sampling rate : 48.0 kHz
 Frame rate : 93.750 FPS (512 SPF)
 Bit depth : 24 bits
 Compression mode : Lossy
 Stream size : 658 MiB (2%)
 Title : Mary.Magdalene.2018.1080p.BluRay.REMUX.AVC.DTS-HD.MA.5.1-FGT
 Language : French
 Default : No
 Forced : No

 Audio #4
 ID : 5
 Format : DTS
 Format/Info : Digital Theater Systems
 Codec ID : A_DTS
 Duration : 1 h 59 min
 Bit rate mode : Constant
 Bit rate : 768 kb/s
 Channel(s) : 6 channels
 Channel positions : Front: L C R, Side: L R, LFE
 Sampling rate : 48.0 kHz
 Frame rate : 93.750 FPS (512 SPF)
 Bit depth : 24 bits
 Compression mode : Lossy
 Stream size : 658 MiB (2%)
 Title : Mary.Magdalene.2018.1080p.BluRay.REMUX.AVC.DTS-HD.MA.5.1-FGT
 Language : German
 Default : No
 Forced : No

 Audio #5
 ID : 6
 Format : DTS
 Format/Info : Digital Theater Systems
 Codec ID : A_DTS
 Duration : 1 h 59 min
 Bit rate mode : Constant
 Bit rate : 768 kb/s
 Channel(s) : 6 channels
 Channel positions : Front: L C R, Side: L R, LFE
 Sampling rate : 48.0 kHz
 Frame rate : 93.750 FPS (512 SPF)
 Bit depth : 24 bits
 Compression mode : Lossy
 Stream size : 658 MiB (2%)
 Title : Mary.Magdalene.2018.1080p.BluRay.REMUX.AVC.DTS-HD.MA.5.1-FGT
 Language : Italian
 Default : No
 Forced : No

 Audio #6
 ID : 7
 Format : DTS
 Format/Info : Digital Theater Systems
 Codec ID : A_DTS
 Duration : 1 h 59 min
 Bit rate mode : Constant
 Bit rate : 768 kb/s
 Channel(s) : 6 channels
 Channel positions : Front: L C R, Side: L R, LFE
 Sampling rate : 48.0 kHz
 Frame rate : 93.750 FPS (512 SPF)
 Bit depth : 24 bits
 Compression mode : Lossy
 Stream size : 658 MiB (2%)
 Title : Mary.Magdalene.2018.1080p.BluRay.REMUX.AVC.DTS-HD.MA.5.1-FGT
 Language : Spanish
 Default : No
 Forced : No

 Audio #7
 ID : 8
 Format : AC-3
 Format/Info : Audio Coding 3
 Codec ID : A_AC3
 Duration : 1 h 59 min
 Bit rate mode : Constant
 Bit rate : 192 kb/s
 Channel(s) : 2 channels
 Channel positions : Front: L R
 Sampling rate : 48.0 kHz
 Frame rate : 31.250 FPS (1536 SPF)
 Bit depth : 16 bits
 Compression mode : Lossy
 Stream size : 165 MiB (0%)
 Title : Mary.Magdalene.2018.1080p.BluRay.REMUX.AVC.DTS-HD.MA.5.1-FGT
 Language : English
 Service kind : Complete Main
 Default : No
 Forced : No

 Text #1
 ID : 9
 Format : PGS
 Muxing mode : zlib
 Codec ID : S_HDMV/PGS
 Codec ID/Info : Picture based subtitle format used on BDs/HD-DVDs
 Duration : 1 h 58 min
 Bit rate : 22.8 kb/s
 Count of elements : 2144
 Stream size : 19.3 MiB (0%)
 Title : English-PGS
 Language : English
 Default : Yes
 Forced : No

 Text #2
 ID : 10
 Format : PGS
 Muxing mode : zlib
 Codec ID : S_HDMV/PGS
 Codec ID/Info : Picture based subtitle format used on BDs/HD-DVDs
 Duration : 1 h 58 min
 Bit rate : 17.1 kb/s
 Count of elements : 1828
 Stream size : 14.5 MiB (0%)
 Title : French-PGS
 Language : French
 Default : No
 Forced : No

 Text #3
 ID : 11
 Format : PGS
 Muxing mode : zlib
 Codec ID : S_HDMV/PGS
 Codec ID/Info : Picture based subtitle format used on BDs/HD-DVDs
 Duration : 1 h 58 min
 Bit rate : 20.3 kb/s
 Count of elements : 1775
 Stream size : 17.2 MiB (0%)
 Title : German-PGS
 Language : German
 Default : No
 Forced : No

 Text #4
 ID : 12
 Format : PGS
 Muxing mode : zlib
 Codec ID : S_HDMV/PGS
 Codec ID/Info : Picture based subtitle format used on BDs/HD-DVDs
 Duration : 1 h 58 min
 Bit rate : 18.5 kb/s
 Count of elements : 1745
 Stream size : 15.7 MiB (0%)
 Title : Italian-PGS
 Language : Italian
 Default : No
 Forced : No

 Text #5
 ID : 13
 Format : PGS
 Muxing mode : zlib
 Codec ID : S_HDMV/PGS
 Codec ID/Info : Picture based subtitle format used on BDs/HD-DVDs
 Duration : 1 h 58 min
 Bit rate : 18.3 kb/s
 Count of elements : 1925
 Stream size : 15.5 MiB (0%)
 Title : Spanish-PGS
 Language : Spanish
 Default : No
 Forced : No

 Text #6
 ID : 14
 Format : PGS
 Muxing mode : zlib
 Codec ID : S_HDMV/PGS
 Codec ID/Info : Picture based subtitle format used on BDs/HD-DVDs
 Duration : 1 h 58 min
 Bit rate : 17.1 kb/s
 Count of elements : 1429
 Stream size : 14.5 MiB (0%)
 Title : Dutch-PGS
 Language : Dutch
 Default : No
 Forced : No

 Text #7
 ID : 15
 Format : PGS
 Muxing mode : zlib
 Codec ID : S_HDMV/PGS
 Codec ID/Info : Picture based subtitle format used on BDs/HD-DVDs
 Duration : 1 h 58 min
 Bit rate : 17.7 kb/s
 Count of elements : 1820
 Stream size : 14.9 MiB (0%)
 Title : Danish-PGS
 Language : Danish
 Default : No
 Forced : No

 Text #8
 ID : 16
 Format : PGS
 Muxing mode : zlib
 Codec ID : S_HDMV/PGS
 Codec ID/Info : Picture based subtitle format used on BDs/HD-DVDs
 Duration : 1 h 58 min
 Bit rate : 16.7 kb/s
 Count of elements : 1683
 Stream size : 14.1 MiB (0%)
 Title : Finnish-PGS
 Language : Finnish
 Default : No
 Forced : No

 Text #9
 ID : 17
 Format : PGS
 Muxing mode : zlib
 Codec ID : S_HDMV/PGS
 Codec ID/Info : Picture based subtitle format used on BDs/HD-DVDs
 Duration : 1 h 58 min
 Bit rate : 16.0 kb/s
 Count of elements : 1835
 Stream size : 13.5 MiB (0%)
 Title : Norwegian-PGS
 Language : Norwegian
 Default : No
 Forced : No

 Text #10
 ID : 18
 Format : PGS
 Muxing mode : zlib
 Codec ID : S_HDMV/PGS
 Codec ID/Info : Picture based subtitle format used on BDs/HD-DVDs
 Duration : 1 h 58 min
 Bit rate : 17.4 kb/s
 Count of elements : 1619
 Stream size : 14.7 MiB (0%)
 Title : Swedish-PGS
 Language : Swedish
 Default : No
 Forced : No

 Text #11
 ID : 19
 Format : PGS
 Muxing mode : zlib
 Codec ID : S_HDMV/PGS
 Codec ID/Info : Picture based subtitle format used on BDs/HD-DVDs
 Duration : 1 h 58 min
 Bit rate : 18.6 kb/s
 Count of elements : 1853
 Stream size : 15.7 MiB (0%)
 Title : Portuguese-PGS
 Language : Portuguese
 Default : No
 Forced : No

 Text #12
 ID : 20
 Format : PGS
 Muxing mode : zlib
 Codec ID : S_HDMV/PGS
 Codec ID/Info : Picture based subtitle format used on BDs/HD-DVDs
 Duration : 1 h 58 min
 Bit rate : 17.1 kb/s
 Count of elements : 1868
 Stream size : 14.4 MiB (0%)
 Title : Hindi-PGS
 Language : Hindi
 Default : No
 Forced : No

 Text #13
 ID : 21
 Format : PGS
 Muxing mode : zlib
 Codec ID : S_HDMV/PGS
 Codec ID/Info : Picture based subtitle format used on BDs/HD-DVDs
 Duration : 1 h 58 min
 Bit rate : 9 261 b/s
 Count of elements : 1870
 Stream size : 7.83 MiB (0%)
 Title : Arabic-PGS
 Language : Arabic
 Default : No
 Forced : No

 Text #14
 ID : 22
 Format : PGS
 Muxing mode : zlib
 Codec ID : S_HDMV/PGS
 Codec ID/Info : Picture based subtitle format used on BDs/HD-DVDs
 Duration : 1 h 58 min
 Bit rate : 19.1 kb/s
 Count of elements : 1868
 Stream size : 16.2 MiB (0%)
 Title : Icelandic-PGS
 Language : Icelandic
 Default : No
 Forced : No

 Text #15
 ID : 23
 Format : PGS
 Muxing mode : zlib
 Codec ID : S_HDMV/PGS
 Codec ID/Info : Picture based subtitle format used on BDs/HD-DVDs
 Duration : 1 h 12 min
 Bit rate : 196 b/s
 Count of elements : 36
 Stream size : 105 KiB (0%)
 Title : English-FORCED-PGS
 Language : English
 Default : No
 Forced : No

 Text #16
 ID : 24
 Format : PGS
 Muxing mode : zlib
 Codec ID : S_HDMV/PGS
 Codec ID/Info : Picture based subtitle format used on BDs/HD-DVDs
 Duration : 1 h 57 min
 Bit rate : 1 078 b/s
 Count of elements : 86
 Stream size : 928 KiB (0%)
 Title : French-FORCED-PGS
 Language : French
 Default : No
 Forced : No

 Text #17
 ID : 25
 Format : PGS
 Muxing mode : zlib
 Codec ID : S_HDMV/PGS
 Codec ID/Info : Picture based subtitle format used on BDs/HD-DVDs
 Duration : 1 h 57 min
 Bit rate : 1 403 b/s
 Count of elements : 92
 Stream size : 1.18 MiB (0%)
 Title : German-FORCED-PGS
 Language : German
 Default : No
 Forced : No

 Text #18
 ID : 26
 Format : PGS
 Muxing mode : zlib
 Codec ID : S_HDMV/PGS
 Codec ID/Info : Picture based subtitle format used on BDs/HD-DVDs
 Duration : 1 h 57 min
 Bit rate : 1 175 b/s
 Count of elements : 80
 Stream size : 1 012 KiB (0%)
 Title : Italian-FORCED-PGS
 Language : Italian
 Default : No
 Forced : No

 Text #19
 ID : 27
 Format : PGS
 Muxing mode : zlib
 Codec ID : S_HDMV/PGS
 Codec ID/Info : Picture based subtitle format used on BDs/HD-DVDs
 Duration : 1 h 57 min
 Bit rate : 1 116 b/s
 Count of elements : 84
 Stream size : 961 KiB (0%)
 Title : Spanish-FORCED-PGS
 Language : Spanish
 Default : No
 Forced : No

 Menu
 00:00:00.000 : en:Chapter 01
 00:06:50.076 : en:Chapter 02
 00:12:28.289 : en:Chapter 03
 00:19:45.642 : en:Chapter 04
 00:23:35.747 : en:Chapter 05
 00:31:02.402 : en:Chapter 06
 00:37:16.609 : en:Chapter 07
 00:44:48.435 : en:Chapter 08
 00:50:57.846 : en:Chapter 09
 00:55:42.756 : en:Chapter 10
 01:01:55.837 : en:Chapter 11
 01:09:28.330 : en:Chapter 12
 01:13:55.013 : en:Chapter 13
 01:16:31.336 : en:Chapter 14
 01:24:27.562 : en:Chapter 15
 01:29:15.516 : en:Chapter 16
 01:33:58.758 : en:Chapter 17
 01:39:33.801 : en:Chapter 18
 01:44:51.368 : en:Chapter 19
 01:53:24.881 : en:Chapter 20


Image Image
Image Image
Image Image
Image Image



LINKS:

Mary.Magdalene.2018.1080p.BluRay.REMUX.AVC.DTS-HD.MA.5.1-FGT.mkv  [33,01 Gb]
Mary.Magdalene.2018.1080p.BluRay.REMUX.AVC.DTS-HD.MA.5.1-FGT.nfo  [11,0 Kb]
Mary.Magdalene.2018.1080p.BluRay.REMUX.AVC.DTS-HD.MA.5.1-FGT.srt  [60,5 Kb]

Todos os horários são GMT - 4 Horas
Powered by phpBB © 2001 phpBB Group