PootzForce Evolution

Filmes Alta Definição / High Definition Movies - [1080p BluRay REMUX] Beirut (2018) *FGT*

lost_rider34 - Sex Jul 06, 2018 10:38 am
Assunto: [1080p BluRay REMUX] Beirut (2018) *FGT*
Image

https://www.imdb.com/title/tt4669264/

Citação:
Beirute, década de 1980. Mason Skiles, diplomata norte-americano afastado do cargo, volta ao serviço para tentar evitar que um colega seja assassinado pelos mesmos criminosos que destruíram sua família. Uma agente da CIA que trabalha disfarçada na embaixada é designada para protegê-lo e contribuir com o sucesso da missão.

Caught in the crossfires of civil war, CIA operatives (Rosamund Pike, Dean Norris) must send a former U.S. diplomat (Jon Hamm) to negotiate for the life of a friend he left behind.



Video
 ID : 1
 Format : AVC
 Format/Info : Advanced Video Codec
 Format profile : High@L4.1
 Format settings : CABAC / 4 Ref Frames
 Format settings, CABAC : Yes
 Format settings, ReFrames : 4 frames
 Codec ID : V_MPEG4/ISO/AVC
 Duration : 1 h 49 min
 Bit rate mode : Variable
 Bit rate : 34.8 Mb/s
 Maximum bit rate : 37.0 Mb/s
 Width : 1 920 pixels
 Height : 1 080 pixels
 Display aspect ratio : 16:9
 Frame rate mode : Constant
 Frame rate : 23.976 (24000/1001) FPS
 Color space : YUV
 Chroma subsampling : 4:2:0
 Bit depth : 8 bits
 Scan type : Progressive
 Bits/(Pixel*Frame) : 0.699
 Stream size : 26.6 GiB (86%)
 Title : Beirut.2018.1080p.BluRay.REMUX.AVC.DTS-HD.MA.5.1-FGT
 Language : English
 Default : No
 Forced : No

 Audio #1
 ID : 2
 Format : DTS
 Format/Info : Digital Theater Systems
 Format profile : MA / Core
 Codec ID : A_DTS
 Duration : 1 h 49 min
 Bit rate mode : Variable / Constant
 Bit rate : 3 840 kb/s / 1 509 kb/s
 Channel(s) : 6 channels
 Channel positions : Front: L C R, Side: L R, LFE
 Sampling rate : 48.0 kHz
 Frame rate : 93.750 FPS (512 SPF)
 Bit depth : 24 bits
 Compression mode : Lossless / Lossy
 Stream size : 2.90 GiB (9%)
 Title : Beirut.2018.1080p.BluRay.REMUX.AVC.DTS-HD.MA.5.1-FGT
 Language : English
 Default : Yes
 Forced : No

 Audio #2
 ID : 3
 Format : DTS
 Format/Info : Digital Theater Systems
 Codec ID : A_DTS
 Duration : 1 h 49 min
 Bit rate mode : Constant
 Bit rate : 1 509 kb/s
 Channel(s) : 6 channels
 Channel positions : Front: L C R, Side: L R, LFE
 Sampling rate : 48.0 kHz
 Frame rate : 93.750 FPS (512 SPF)
 Bit depth : 24 bits
 Compression mode : Lossy
 Stream size : 1.16 GiB (4%)
 Title : Beirut.2018.1080p.BluRay.REMUX.AVC.DTS-HD.MA.5.1-FGT
 Language : English
 Default : No
 Forced : No

 Audio #3
 ID : 4
 Format : AC-3
 Format/Info : Audio Coding 3
 Codec ID : A_AC3
 Duration : 1 h 49 min
 Bit rate mode : Constant
 Bit rate : 192 kb/s
 Channel(s) : 2 channels
 Channel positions : Front: L R
 Sampling rate : 48.0 kHz
 Frame rate : 31.250 FPS (1536 SPF)
 Bit depth : 16 bits
 Compression mode : Lossy
 Stream size : 151 MiB (0%)
 Title : Beirut.2018.1080p.BluRay.REMUX.AVC.DTS-HD.MA.5.1-FGT
 Language : English
 Service kind : Complete Main
 Default : No
 Forced : No

 Text #1
 ID : 5
 Format : PGS
 Muxing mode : zlib
 Codec ID : S_HDMV/PGS
 Codec ID/Info : Picture based subtitle format used on BDs/HD-DVDs
 Duration : 1 h 48 min
 Bit rate : 53.2 kb/s
 Count of elements : 3512
 Stream size : 41.2 MiB (0%)
 Title : English-PGS
 Language : English
 Default : Yes
 Forced : No

 Text #2
 ID : 6
 Format : PGS
 Muxing mode : zlib
 Codec ID : S_HDMV/PGS
 Codec ID/Info : Picture based subtitle format used on BDs/HD-DVDs
 Duration : 1 h 48 min
 Bit rate : 42.0 kb/s
 Count of elements : 3183
 Stream size : 32.6 MiB (0%)
 Title : Spanish-PGS
 Language : Spanish
 Default : No
 Forced : No

 Menu
 00:00:00.000 : en:Chapter 01
 00:06:12.622 : en:Chapter 02
 00:13:35.481 : en:Chapter 03
 00:17:22.249 : en:Chapter 04
 00:22:57.292 : en:Chapter 05
 00:28:06.351 : en:Chapter 06
 00:34:22.393 : en:Chapter 07
 00:39:46.634 : en:Chapter 08
 00:44:28.624 : en:Chapter 09
 00:50:39.661 : en:Chapter 10
 00:55:06.511 : en:Chapter 11
 01:00:41.596 : en:Chapter 12
 01:05:43.648 : en:Chapter 13
 01:10:56.001 : en:Chapter 14
 01:17:43.325 : en:Chapter 15
 01:24:47.957 : en:Chapter 16
 01:28:42.483 : en:Chapter 17
 01:34:56.732 : en:Chapter 18
 01:40:47.624 : en:Chapter 19
 01:45:20.981 : en:Chapter 20


Image Image
Image Image
Image Image


LINKS:

Beirut.2018.1080p.BluRay.REMUX.AVC.DTS-HD.MA.5.1-FGT.mkv  [30,87 Gb]
Beirut.2018.1080p.BluRay.REMUX.AVC.DTS-HD.MA.5.1-FGT.nfo  [3,5 Kb]
Beirut.2018.1080p.BluRay.REMUX.AVC.DTS-HD.MA.5.1-FGT.srt  [111,0 Kb]

viajante02 - Sex Jul 06, 2018 10:40 am
Assunto:
thanks Very Happy
Todos os horários são GMT - 4 Horas
Powered by phpBB © 2001 phpBB Group