PootzForce Evolution

Filmes Alta Definição / High Definition Movies - [1080p BluRay REMUX] Rampage (2018) *FGT*

lost_rider34 - Sáb Jul 07, 2018 9:02 am
Assunto: [1080p BluRay REMUX] Rampage (2018) *FGT*
Image

Citação:
O primatólogo Davis Okoye (Dwayne Johnson) prefere a companhia dos animais do que a dos humanos. Ele possui um laço com George, um gorila com inteligência extraordinária, do qual cuida desde o nascimento. Mas um experimento extraoficial dá errado e transforma o gentil primata em um monstro furioso. Para piorar, é descoberto que outros animais tiveram o DNA alterado e agora, essas criaturas recém-criadas fogem Estados Unidos, deixando um rastro de destruição por onde passam. Cabe à Okoye, que se junta com uma engenheira genética, encontrar um antídoto antes que a catástrofe seja global - e que o animal que um dia foi seu amigo possa ser salvo.

Primatologist Davis Okoye (Johnson), a man who keeps people at a distance, shares an unshakable bond with George, the extraordinarily intelligent, silverback gorilla who has been in his care since birth. But a rogue genetic experiment gone awry mutates this gentle ape into a raging creature of enormous size. To make matters worse, it's soon discovered there are other similarly altered animals. As these newly created alpha predators tear across North America, destroying everything in their path, Okoye teams with a discredited genetic engineer to secure an antidote, fighting his way through an ever-changing battlefield, not only to halt a global catastrophe but to save the fearsome creature that was once his friend.


[imdb]https://www.imdb.com/title/tt2231461/[/imdb]


Video
 ID : 1
 Format : AVC
 Format/Info : Advanced Video Codec
 Format profile : High@L4.1
 Format settings : CABAC / 4 Ref Frames
 Format settings, CABAC : Yes
 Format settings, ReFrames : 4 frames
 Codec ID : V_MPEG4/ISO/AVC
 Duration : 1 h 47 min
 Bit rate mode : Variable
 Bit rate : 23.7 Mb/s
 Maximum bit rate : 28.0 Mb/s
 Width : 1 920 pixels
 Height : 1 080 pixels
 Display aspect ratio : 16:9
 Frame rate mode : Constant
 Frame rate : 23.976 (24000/1001) FPS
 Color space : YUV
 Chroma subsampling : 4:2:0
 Bit depth : 8 bits
 Scan type : Progressive
 Bits/(Pixel*Frame) : 0.476
 Stream size : 17.7 GiB (64%)
 Title : Rampage.2018.1080p.BluRay.REMUX.AVC.DTS-HD.MA.TrueHD.7.1.Atmos-FGT
 Language : English
 Default : No
 Forced : No

 Audio #1
 ID : 2
 Format : TrueHD
 Format profile : TrueHD+Atmos / TrueHD
 Codec ID : A_TRUEHD
 Duration : 1 h 47 min
 Bit rate mode : Variable
 Bit rate : 3 279 kb/s
 Maximum bit rate : 5 205 kb/s
 Channel(s) : Object Based / 8 channels
 Channel positions : Object Based / Front: L C R, Side: L R, Back: L R, LFE
 Sampling rate : / 48.0 kHz
 Frame rate : 1 200.000 FPS (40 SPF)
 Compression mode : Lossless
 Stream size : 2.46 GiB (9%)
 Title : Rampage.2018.1080p.BluRay.REMUX.AVC.DTS-HD.MA.TrueHD.7.1.Atmos-FGT
 Language : English
 Default : Yes
 Forced : No

 Audio #2
 ID : 3
 Format : DTS
 Format/Info : Digital Theater Systems
 Format profile : MA / Core
 Codec ID : A_DTS
 Duration : 1 h 47 min
 Bit rate mode : Variable / Constant
 Bit rate : 4 013 kb/s / 1 509 kb/s
 Channel(s) : 8 channels / 6 channels
 Channel positions : Front: L C R, Side: L R, Back: L R, LFE / Front: L C R, Side: L R, LFE
 Sampling rate : 48.0 kHz
 Frame rate : 93.750 FPS (512 SPF)
 Bit depth : 24 bits
 Compression mode : Lossless / Lossy
 Stream size : 3.01 GiB (11%)
 Title : Rampage.2018.1080p.BluRay.REMUX.AVC.DTS-HD.MA.TrueHD.7.1.Atmos-FGT
 Language : English
 Default : No
 Forced : No

 Audio #3
 ID : 4
 Format : AC-3
 Format/Info : Audio Coding 3
 Codec ID : A_AC3
 Duration : 1 h 47 min
 Bit rate mode : Constant
 Bit rate : 448 kb/s
 Channel(s) : 6 channels
 Channel positions : Front: L C R, Side: L R, LFE
 Sampling rate : 48.0 kHz
 Frame rate : 31.250 FPS (1536 SPF)
 Bit depth : 16 bits
 Compression mode : Lossy
 Stream size : 344 MiB (1%)
 Title : Rampage.2018.1080p.BluRay.REMUX.AVC.DTS-HD.MA.TrueHD.7.1.Atmos-FGT
 Language : English
 Service kind : Complete Main
 Default : No
 Forced : No

 Audio #4
 ID : 5
 Format : DTS
 Format/Info : Digital Theater Systems
 Format profile : MA / Core
 Codec ID : A_DTS
 Duration : 1 h 47 min
 Bit rate mode : Variable / Constant
 Bit rate : 2 378 kb/s / 1 509 kb/s
 Channel(s) : 6 channels
 Channel positions : Front: L C R, Side: L R, LFE
 Sampling rate : 48.0 kHz
 Frame rate : 93.750 FPS (512 SPF)
 Bit depth : 16 bits
 Compression mode : Lossless / Lossy
 Stream size : 1.78 GiB (6%)
 Title : Rampage.2018.1080p.BluRay.REMUX.AVC.DTS-HD.MA.TrueHD.7.1.Atmos-FGT
 Language : English
 Default : No
 Forced : No

 Audio #5
 ID : 6
 Format : DTS
 Format/Info : Digital Theater Systems
 Codec ID : A_DTS
 Duration : 1 h 47 min
 Bit rate mode : Constant
 Bit rate : 1 509 kb/s
 Channel(s) : 6 channels
 Channel positions : Front: L C R, Side: L R, LFE
 Sampling rate : 48.0 kHz
 Frame rate : 93.750 FPS (512 SPF)
 Bit depth : 16 bits
 Compression mode : Lossy
 Stream size : 1.13 GiB (4%)
 Title : Rampage.2018.1080p.BluRay.REMUX.AVC.DTS-HD.MA.TrueHD.7.1.Atmos-FGT
 Language : English
 Default : No
 Forced : No

 Audio #6
 ID : 7
 Format : AC-3
 Format/Info : Audio Coding 3
 Codec ID : A_AC3
 Duration : 1 h 47 min
 Bit rate mode : Constant
 Bit rate : 448 kb/s
 Channel(s) : 6 channels
 Channel positions : Front: L C R, Side: L R, LFE
 Sampling rate : 48.0 kHz
 Frame rate : 31.250 FPS (1536 SPF)
 Bit depth : 16 bits
 Compression mode : Lossy
 Stream size : 344 MiB (1%)
 Title : Rampage.2018.1080p.BluRay.REMUX.AVC.DTS-HD.MA.TrueHD.7.1.Atmos-FGT
 Language : English
 Service kind : Complete Main
 Default : No
 Forced : No

 Audio #7
 ID : 8
 Format : AC-3
 Format/Info : Audio Coding 3
 Codec ID : A_AC3
 Duration : 1 h 47 min
 Bit rate mode : Constant
 Bit rate : 448 kb/s
 Channel(s) : 6 channels
 Channel positions : Front: L C R, Side: L R, LFE
 Sampling rate : 48.0 kHz
 Frame rate : 31.250 FPS (1536 SPF)
 Bit depth : 16 bits
 Compression mode : Lossy
 Stream size : 344 MiB (1%)
 Title : Rampage.2018.1080p.BluRay.REMUX.AVC.DTS-HD.MA.TrueHD.7.1.Atmos-FGT
 Language : French
 Service kind : Complete Main
 Default : No
 Forced : No

 Audio #8
 ID : 9
 Format : AC-3
 Format/Info : Audio Coding 3
 Codec ID : A_AC3
 Duration : 1 h 47 min
 Bit rate mode : Constant
 Bit rate : 448 kb/s
 Channel(s) : 6 channels
 Channel positions : Front: L C R, Side: L R, LFE
 Sampling rate : 48.0 kHz
 Frame rate : 31.250 FPS (1536 SPF)
 Bit depth : 16 bits
 Compression mode : Lossy
 Stream size : 344 MiB (1%)
 Title : Rampage.2018.1080p.BluRay.REMUX.AVC.DTS-HD.MA.TrueHD.7.1.Atmos-FGT
 Language : Spanish
 Service kind : Complete Main
 Default : No
 Forced : No

 Audio #9
 ID : 10
 Format : AC-3
 Format/Info : Audio Coding 3
 Codec ID : A_AC3
 Duration : 1 h 47 min
 Bit rate mode : Constant
 Bit rate : 448 kb/s
 Channel(s) : 6 channels
 Channel positions : Front: L C R, Side: L R, LFE
 Sampling rate : 48.0 kHz
 Frame rate : 31.250 FPS (1536 SPF)
 Bit depth : 16 bits
 Compression mode : Lossy
 Stream size : 344 MiB (1%)
 Title : Rampage.2018.1080p.BluRay.REMUX.AVC.DTS-HD.MA.TrueHD.7.1.Atmos-FGT
 Language : Portuguese
 Service kind : Complete Main
 Default : No
 Forced : No

 Text #1
 ID : 11
 Format : PGS
 Muxing mode : zlib
 Codec ID : S_HDMV/PGS
 Codec ID/Info : Picture based subtitle format used on BDs/HD-DVDs
 Duration : 1 h 45 min
 Bit rate : 36.7 kb/s
 Count of elements : 3088
 Stream size : 27.7 MiB (0%)
 Title : English-PGS
 Language : English
 Default : Yes
 Forced : No

 Text #2
 ID : 12
 Format : PGS
 Muxing mode : zlib
 Codec ID : S_HDMV/PGS
 Codec ID/Info : Picture based subtitle format used on BDs/HD-DVDs
 Duration : 1 h 46 min
 Bit rate : 24.3 kb/s
 Count of elements : 2374
 Stream size : 18.6 MiB (0%)
 Title : French-PGS
 Language : French
 Default : No
 Forced : No

 Text #3
 ID : 13
 Format : PGS
 Muxing mode : zlib
 Codec ID : S_HDMV/PGS
 Codec ID/Info : Picture based subtitle format used on BDs/HD-DVDs
 Duration : 1 h 46 min
 Bit rate : 29.7 kb/s
 Count of elements : 2552
 Stream size : 22.6 MiB (0%)
 Title : Spanish-PGS
 Language : Spanish
 Default : No
 Forced : No

 Text #4
 ID : 14
 Format : PGS
 Muxing mode : zlib
 Codec ID : S_HDMV/PGS
 Codec ID/Info : Picture based subtitle format used on BDs/HD-DVDs
 Duration : 1 h 46 min
 Bit rate : 27.8 kb/s
 Count of elements : 2562
 Stream size : 21.2 MiB (0%)
 Title : Portuguese-PGS
 Language : Portuguese
 Default : No
 Forced : No

 Text #5
 ID : 15
 Format : PGS
 Muxing mode : zlib
 Codec ID : S_HDMV/PGS
 Codec ID/Info : Picture based subtitle format used on BDs/HD-DVDs
 Duration : 1 h 46 min
 Bit rate : 705 b/s
 Count of elements : 38
 Stream size : 551 KiB (0%)
 Title : French-FORCED-PGS
 Language : French
 Default : No
 Forced : No

 Text #6
 ID : 16
 Format : PGS
 Muxing mode : zlib
 Codec ID : S_HDMV/PGS
 Codec ID/Info : Picture based subtitle format used on BDs/HD-DVDs
 Duration : 1 h 46 min
 Bit rate : 898 b/s
 Count of elements : 56
 Stream size : 702 KiB (0%)
 Title : Spanish-FORCED-PGS
 Language : Spanish
 Default : No
 Forced : No

 Text #7
 ID : 17
 Format : PGS
 Muxing mode : zlib
 Codec ID : S_HDMV/PGS
 Codec ID/Info : Picture based subtitle format used on BDs/HD-DVDs
 Duration : 1 h 44 min
 Bit rate : 302 b/s
 Count of elements : 28
 Stream size : 231 KiB (0%)
 Title : Portuguese-FORCED-PGS
 Language : Portuguese
 Default : No
 Forced : No

 Menu
 00:00:00.000 : en:Chapter 01
 00:12:58.527 : en:Chapter 02
 00:19:56.278 : en:Chapter 03
 00:29:53.291 : en:Chapter 04
 00:40:35.391 : en:Chapter 05
 00:49:10.906 : en:Chapter 06
 01:02:38.171 : en:Chapter 07
 01:10:37.650 : en:Chapter 08
 01:20:10.472 : en:Chapter 09
 01:29:23.608 : en:Chapter 10
 01:39:43.060 : en:Chapter 11


Image Image
Image Image
Image Image
Image Image



LINKS:

Rampage.2018.1080p.BluRay.REMUX.AVC.DTS-HD.MA.TrueHD.7.1.Atmos-FGT.mkv  [27,86 Gb]
Rampage.2018.1080p.BluRay.REMUX.AVC.DTS-HD.MA.TrueHD.7.1.Atmos-FGT.nfo  [8,2 Kb]
Rampage.2018.1080p.BluRay.REMUX.AVC.DTS-HD.MA.TrueHD.7.1.Atmos-FGT.srt  [86,0 Kb]

Todos os horários são GMT - 4 Horas
Powered by phpBB © 2001 phpBB Group