PootzForce Evolution

Filmes Alta Definição / High Definition Movies - [1080p BluRay DTS] Spinning Man (2018) *FGT*

lost_rider34 - Sáb Jul 07, 2018 9:05 am
Assunto: [1080p BluRay DTS] Spinning Man (2018) *FGT*
Image

Citação:
Um professor de filosofia respeitado se torna o principal suspeito no desaparecimento de uma líder de torcida.

Evan Birch (Guy Pearce) is a family man and esteemed professor at a distinguished college, where his charm and reputation have made his philosophy class very popular. When a female student named Joyce goes missing, Evan's previous off-campus dalliances make his wife (Minnie Driver) question his alibi. Gruff police Detective Malloy (Pierce Brosnan) has even more reason to be suspicious when crucial evidence makes Evan the prime suspect in Joyce's disappearance. Suddenly, the questions Evan faces aren't merely academic--they're a matter of life or death.


[imdb]https://www.imdb.com/title/tt5616294/[/imdb]


Video
 ID : 1
 Format : AVC
 Format/Info : Advanced Video Codec
 Format profile : High@L4.1
 Format settings : CABAC / 4 Ref Frames
 Format settings, CABAC : Yes
 Format settings, ReFrames : 4 frames
 Codec ID : V_MPEG4/ISO/AVC
 Duration : 1 h 40 min
 Bit rate mode : Variable
 Bit rate : 20.0 Mb/s
 Maximum bit rate : 37.0 Mb/s
 Width : 1 920 pixels
 Height : 1 080 pixels
 Display aspect ratio : 16:9
 Frame rate mode : Constant
 Frame rate : 23.976 (24000/1001) FPS
 Color space : YUV
 Chroma subsampling : 4:2:0
 Bit depth : 8 bits
 Scan type : Progressive
 Bits/(Pixel*Frame) : 0.402
 Stream size : 14.0 GiB (79%)
 Title : Spinning.Man.2018.1080p.BluRay.REMUX.AVC.DTS-HD.MA.5.1-FGT
 Language : English
 Default : No
 Forced : No

 Audio #1
 ID : 2
 Format : DTS
 Format/Info : Digital Theater Systems
 Format profile : MA / Core
 Codec ID : A_DTS
 Duration : 1 h 40 min
 Bit rate mode : Variable / Constant
 Bit rate : 3 245 kb/s / 1 509 kb/s
 Channel(s) : 6 channels
 Channel positions : Front: L C R, Side: L R, LFE
 Sampling rate : 48.0 kHz
 Frame rate : 93.750 FPS (512 SPF)
 Bit depth : 24 bits
 Compression mode : Lossless / Lossy
 Stream size : 2.28 GiB (13%)
 Title : Spinning.Man.2018.1080p.BluRay.REMUX.AVC.DTS-HD.MA.5.1-FGT
 Language : English
 Default : Yes
 Forced : No

 Audio #2
 ID : 3
 Format : DTS
 Format/Info : Digital Theater Systems
 Codec ID : A_DTS
 Duration : 1 h 40 min
 Bit rate mode : Constant
 Bit rate : 1 509 kb/s
 Channel(s) : 6 channels
 Channel positions : Front: L C R, Side: L R, LFE
 Sampling rate : 48.0 kHz
 Frame rate : 93.750 FPS (512 SPF)
 Bit depth : 24 bits
 Compression mode : Lossy
 Stream size : 1.06 GiB (6%)
 Title : Spinning.Man.2018.1080p.BluRay.REMUX.AVC.DTS-HD.MA.5.1-FGT
 Language : English
 Default : No
 Forced : No

 Audio #3
 ID : 4
 Format : AC-3
 Format/Info : Audio Coding 3
 Codec ID : A_AC3
 Duration : 1 h 40 min
 Bit rate mode : Constant
 Bit rate : 448 kb/s
 Channel(s) : 2 channels
 Channel positions : Front: L R
 Sampling rate : 48.0 kHz
 Frame rate : 31.250 FPS (1536 SPF)
 Bit depth : 16 bits
 Compression mode : Lossy
 Stream size : 322 MiB (2%)
 Title : Spinning.Man.2018.1080p.BluRay.REMUX.AVC.DTS-HD.MA.5.1-FGT
 Language : English
 Service kind : Complete Main
 Default : No
 Forced : No

 Text #1
 ID : 5
 Format : PGS
 Muxing mode : zlib
 Codec ID : S_HDMV/PGS
 Codec ID/Info : Picture based subtitle format used on BDs/HD-DVDs
 Duration : 1 h 35 min
 Bit rate : 46.8 kb/s
 Count of elements : 2832
 Stream size : 32.0 MiB (0%)
 Title : English-PGS
 Language : English
 Default : Yes
 Forced : No

 Text #2
 ID : 6
 Format : PGS
 Muxing mode : zlib
 Codec ID : S_HDMV/PGS
 Codec ID/Info : Picture based subtitle format used on BDs/HD-DVDs
 Duration : 1 h 39 min
 Bit rate : 48.5 kb/s
 Count of elements : 3092
 Stream size : 34.5 MiB (0%)
 Title : English-SDH-PGS
 Language : English
 Default : No
 Forced : No

 Text #3
 ID : 7
 Format : PGS
 Muxing mode : zlib
 Codec ID : S_HDMV/PGS
 Codec ID/Info : Picture based subtitle format used on BDs/HD-DVDs
 Duration : 1 h 35 min
 Bit rate : 41.4 kb/s
 Count of elements : 2718
 Stream size : 28.3 MiB (0%)
 Title : Spanish-PGS
 Language : Spanish
 Default : No
 Forced : No

 Menu
 00:00:00.000 : en:Chapter 01
 00:06:58.251 : en:Chapter 02
 00:11:58.426 : en:Chapter 03
 00:19:37.718 : en:Chapter 04
 00:25:02.292 : en:Chapter 05
 00:30:23.738 : en:Chapter 06
 00:37:14.523 : en:Chapter 07
 00:43:05.124 : en:Chapter 08
 00:49:24.169 : en:Chapter 09
 00:56:05.653 : en:Chapter 10
 01:03:32.892 : en:Chapter 11
 01:09:20.823 : en:Chapter 12
 01:15:05.375 : en:Chapter 13
 01:21:58.246 : en:Chapter 14
 01:30:54.490 : en:Chapter 15
 01:34:24.533 : en:Chapter 16


Image Image
Image Image
Image Image



LINKS:

Spinning.Man.2018.1080p.BluRay.REMUX.AVC.DTS-HD.MA.5.1-FGT.srt  [100,5 Kb]
Spinning.Man.2018.1080p.BluRay.REMUX.AVC.DTS-HD.MA.5.1-FGT.nfo  [3,8 Kb]
Spinning.Man.2018.1080p.BluRay.REMUX.AVC.DTS-HD.MA.5.1-FGT.mkv  [17,75 Gb]

Todos os horários são GMT - 4 Horas
Powered by phpBB © 2001 phpBB Group