PootzForce Evolution

Filmes Alta Definição / High Definition Movies - [1080p BluRay REMUX] Black Water (2018) *FGT*

lost_rider34 - Sáb Jul 07, 2018 9:10 am
Assunto: [1080p BluRay REMUX] Black Water (2018) *FGT*
Image

Citação:
Um agente infiltrado (Jean-Claude Van Damme) acorda para descobrir que está preso em um obscuro submarino da CIA.

Action-movie icons Jean-Claude Van Damme and Dolph Lundgren deliver a double shot of adrenaline-fueled excitement in this heartpounding undersea thriller. After a failed mission, deep-cover operative Wheeler (Van Damme) is imprisoned in a CIA black site on a submarine. The CIA agents will to go to any lengths to get information from Wheeler-but nothing can prepare them for the storm of violence that erupts when he joins forces with a fellow prisoner (Lundgren) as deadly as he is mysterious.


[imdb]http://www.imdb.com/title/tt5622412/[/imdb]


Video
ID                                       : 1
Format                                   : AVC
Format/Info                              : Advanced Video Codec
Format profile                           : High@L4.1
Format settings                          : CABAC / 3 Ref Frames
Format settings, CABAC                   : Yes
Format settings, ReFrames                : 3 frames
Codec ID                                 : V_MPEG4/ISO/AVC
Duration                                 : 1 h 44 min
Bit rate mode                            : Variable
Bit rate                                 : 31.0 Mb/s
Nominal bit rate                         : 35.0 Mb/s
Maximum bit rate                         : 35.0 Mb/s
Width                                    : 1 920 pixels
Height                                   : 1 080 pixels
Display aspect ratio                     : 16:9
Frame rate mode                          : Constant
Frame rate                               : 23.976 (24000/1001) FPS
Standard                                 : NTSC
Color space                              : YUV
Chroma subsampling                       : 4:2:0
Bit depth                                : 8 bits
Scan type                                : Progressive
Bits/(Pixel*Frame)                       : 0.624
Stream size                              : 22.7 GiB (90%)
Title                                    : Black.Water.2018.1080p.BluRay.REMUX.AVC.DTS-HD.MA.5.1-FGT
Writing library                          : x264pro - Adobe CS Exporter Plug-in
Encoding settings                        : cabac=1 / ref=4 / deblock=1:-1:-1 / analyse=0x3:0x113 / me=umh / subme=8 / psy=1 / psy_rd=1.00:0.15 / mixed_ref=1 / me_range=16 / chroma_me=1 / trellis=1 / 8x8dct=1 / cqm=0 / deadzone=21,11 / fast_pskip=1 / chroma_qp_offset=-3 / threads=36 / lookahead_threads=6 / sliced_threads=0 / slices=4 / nr=0 / decimate=1 / interlaced=0 / bluray_compat=1 / constrained_intra=0 / bframes=3 / b_pyramid=1 / b_adapt=2 / b_bias=0 / direct=3 / weightb=1 / open_gop=0 / weightp=1 / keyint=24 / keyint_min=1 / scenecut=40 / intra_refresh=0 / rc_lookahead=24 / rc=cbr / mbtree=1 / bitrate=35000 / ratetol=1.0 / qcomp=0.60 / qpmin=0 / qpmax=69 / qpstep=4 / vbv_maxrate=35000 / vbv_bufsize=30000 / nal_hrd=vbr / ip_ratio=1.40 / aq=1:1.00
Language                                 : English
Default                                  : No
Forced                                   : No
Color range                              : Limited
Color primaries                          : BT.709
Transfer characteristics                 : BT.709
Matrix coefficients                      : BT.709

Audio #1
ID                                       : 2
Format                                   : DTS
Format/Info                              : Digital Theater Systems
Format profile                           : MA / Core
Codec ID                                 : A_DTS
Duration                                 : 1 h 44 min
Bit rate mode                            : Variable / Constant
Bit rate                                 : 1 920 kb/s / 1 509 kb/s
Channel(s)                               : 6 channels
Channel positions                        : Front: L C R, Side: L R, LFE
Sampling rate                            : 48.0 kHz
Frame rate                               : 93.750 FPS (512 SPF)
Bit depth                                : 16 bits
Compression mode                         : Lossless / Lossy
Stream size                              : 1.40 GiB (6%)
Title                                    : Black.Water.2018.1080p.BluRay.REMUX.AVC.DTS-HD.MA.5.1-FGT
Language                                 : English
Default                                  : Yes
Forced                                   : No

Audio #2
ID                                       : 3
Format                                   : DTS
Format/Info                              : Digital Theater Systems
Codec ID                                 : A_DTS
Duration                                 : 1 h 44 min
Bit rate mode                            : Constant
Bit rate                                 : 1 509 kb/s
Channel(s)                               : 6 channels
Channel positions                        : Front: L C R, Side: L R, LFE
Sampling rate                            : 48.0 kHz
Frame rate                               : 93.750 FPS (512 SPF)
Bit depth                                : 16 bits
Compression mode                         : Lossy
Stream size                              : 1.10 GiB (4%)
Title                                    : Black.Water.2018.1080p.BluRay.REMUX.AVC.DTS-HD.MA.5.1-FGT
Language                                 : English
Default                                  : No
Forced                                   : No

Menu
00:00:00.000                             : en:Chapter 01
00:16:00.292                             : en:Chapter 02
00:27:36.237                             : en:Chapter 03
00:45:27.808                             : en:Chapter 04
00:55:15.854                             : en:Chapter 05
01:05:08.654                             : en:Chapter 06
01:16:59.364                             : en:Chapter 07
01:36:06.969                             : en:Chapter 08


Image Image
Image Image
Image Image


LINKS:

Black.Water.2018.1080p.BluRay.REMUX.AVC.DTS-HD.MA.5.1-FGT.mkv  [25,18 Gb]
Black.Water.2018.1080p.BluRay.REMUX.AVC.DTS-HD.MA.5.1-FGT.nfo  [5,2 Kb]
Black.Water.2018.1080p.BluRay.REMUX.AVC.DTS-HD.MA.5.1-FGT.srt  [72,9 Kb]

Todos os horários são GMT - 4 Horas
Powered by phpBB © 2001 phpBB Group