PootzForce Evolution

Filmes Alta Definição / High Definition Movies - [1080p BluRay DTS] Jeremiah Johnson (1972) *HD4U*

lost_rider34 - Sáb Jul 07, 2018 9:13 am
Assunto: [1080p BluRay DTS] Jeremiah Johnson (1972) *HD4U*
Image

Citação:
Ex-soldado veterano da guerra mexicano-americana (1846-4Cool, Jeremiah Johnson abandona a farda e busca refúgio no Oeste. Ele se torna um montanhês, vivendo como caçador. No inverno, com muitas dificuldades para sobreviver, faz contato com índios da tribo crow e se torna amigo do chefe. Ele se casa com uma nativa crow e, depois, encontra uma mulher atacada por guerreiros blackfoot, tribo rival dos crow. A mulher, enlouquecida, deixa seu filho sob os cuidados de Johnson, que assim forma uma família.

Mas Johnson é forçado a voltar para o exército e deve guiar as tropas sobre a terra sagrada dos crow. Os índios querem vingança por esse ato. Ao voltar para a montanha, Johnson iniciará uma longa sequência de lutas com os crow, que mandarão durante anos seus melhores guerreiros, um a um, para matá-lo.


[imdb]http://www.imdb.com/title/tt0068762/[/imdb]


Video
 ID                                       : 1
 Format                                   : AVC
 Format/Info                              : Advanced Video Codec
 Format profile                           : High@L4.1
 Format settings, CABAC                   : Yes
 Format settings, ReFrames                : 5 frames
 Codec ID                                 : V_MPEG4/ISO/AVC
 Duration                                 : 1 h 55 min
 Bit rate                                 : 8 301 kb/s
 Width                                    : 1 920 pixels
 Height                                   : 800 pixels
 Display aspect ratio                     : 2.40:1
 Frame rate mode                          : Constant
 Frame rate                               : 23.976 FPS
 Color space                              : YUV
 Chroma subsampling                       : 4:2:0
 Bit depth                                : 8 bits
 Scan type                                : Progressive
 Bits/(Pixel*Frame)                       : 0.225
 Stream size                              : 6.56 GiB (83%)
 Writing library                          : x264 core 122 r2184 5c85e0a
 Encoding settings                        : cabac=1 / ref=5 / deblock=1:0:0 / analyse=0x3:0x133 / me=umh / subme=7 / psy=1 / psy_rd=1.00:0.00 / mixed_ref=1 / me_range=16 / chroma_me=1 / trellis=1 / 8x8dct=1 / cqm=0 / deadzone=21,11 / fast_pskip=0 / chroma_qp_offset=-2 / threads=12 / sliced_threads=0 / nr=0 / decimate=1 / interlaced=0 / bluray_compat=0 / constrained_intra=0 / bframes=3 / b_pyramid=2 / b_adapt=1 / b_bias=0 / direct=1 / weightb=1 / open_gop=0 / weightp=2 / keyint=250 / keyint_min=23 / scenecut=40 / intra_refresh=0 / rc_lookahead=40 / rc=2pass / mbtree=1 / bitrate=8301 / ratetol=1.0 / qcomp=0.60 / qpmin=0 / qpmax=69 / qpstep=4 / cplxblur=20.0 / qblur=0.5 / ip_ratio=1.40 / aq=1:1.00
 Language                                 : English
 Default                                  : Yes
 Forced                                   : No

 Audio
 ID                                       : 2
 Format                                   : DTS
 Format/Info                              : Digital Theater Systems
 Mode                                     : 16
 Format settings, Endianness              : Big
 Codec ID                                 : A_DTS
 Duration                                 : 1 h 55 min
 Bit rate mode                            : Constant
 Bit rate                                 : 1 509 kb/s
 Channel(s)                               : 6 channels
 Channel positions                        : Front: L C R, Side: L R, LFE
 Sampling rate                            : 48.0 kHz
 Frame rate                               : 93.750 FPS (512 spf)
 Bit depth                                : 24 bits
 Compression mode                         : Lossy
 Stream size                              : 1.22 GiB (15%)
 Language                                 : English
 Default                                  : Yes
 Forced                                   : No

 Text
 ID                                       : 3
 Format                                   : UTF-8
 Codec ID                                 : S_TEXT/UTF8
 Codec ID/Info                            : UTF-8 Plain Text
 Language                                 : English
 Default                                  : No
 Forced                                   : No

 Menu
 00:00:00.000                             : en:00:00:00.000
 00:03:04.184                             : en:00:03:04.184
 00:07:54.766                             : en:00:07:54.766
 00:10:29.504                             : en:00:10:29.504
 00:13:07.620                             : en:00:13:07.620
 00:15:29.470                             : en:00:15:29.470
 00:17:58.619                             : en:00:17:58.619
 00:21:59.860                             : en:00:21:59.860
 00:27:29.231                             : en:00:27:29.231
 00:30:50.599                             : en:00:30:50.599
 00:35:35.300                             : en:00:35:35.300
 00:39:54.601                             : en:00:39:54.601
 00:41:53.386                             : en:00:41:53.386
 00:49:36.098                             : en:00:49:36.098
 00:54:38.650                             : en:00:54:38.650
 01:04:50.762                             : en:01:04:50.762
 01:08:55.715                             : en:01:08:55.715
 01:11:39.837                             : en:01:11:39.837
 01:14:54.407                             : en:01:14:54.407
 01:17:44.660                             : en:01:17:44.660
 01:19:12.247                             : en:01:19:12.247
 01:23:20.370                             : en:01:23:20.370
 01:27:53.101                             : en:01:27:53.101
 01:37:34.807                             : en:01:37:34.807
 01:43:09.725                             : en:01:43:09.725
 01:45:23.651                             : en:01:45:23.651
 01:49:16.967                             : en:01:49:16.967
 01:53:33.515                             : en:01:53:33.515
 01:55:11.071                             : en:01:55:11.071


Image Image
Image Image



LINKS:

Jeremiah.Johnson.1972.1080p.BluRay.x264-HD4U.mkv  [7,94 Gb]
Jeremiah.Johnson.1972.1080p.BluRay.x264-HD4U.srt  [41,7 Kb]

Maceio - Seg Jul 09, 2018 7:36 am
Assunto:
Muito bom, conferindo.
rbrtmyhr - Dom Jul 22, 2018 8:16 pm
Assunto:
Don't be angry:grrr: . Thanks........
Todos os horários são GMT - 4 Horas
Powered by phpBB © 2001 phpBB Group